.
Авторизация | Регистрация
» » Дрянная Девчонка / Dirty Girl (2010) BDRip от AleksSin | Лицензия скачать торрент бесплатно




    Дрянная Девчонка / Dirty Girl (2010) BDRip от AleksSin | Лицензия скачать торрент бесплатно

    Опубликовал: Админ | Дата: 25-03-2015, 20:00 | Просмотров: 192


    Детально о кино
    Русское название:Дрянная Девчонка
    Русское название в мировом прокате:Dirty Girl
    Создали в:2010
    Категория жанра:драма, комедия
    Главный режиссер:Абе Сильвия

    Актеры
    Джуно Темпл, Милла Йовович, Джереми Дозье, Зэк Лэсри, Джонатан Славин, Марселла Ленц-Поуп, Уильям Хорвич, Гэри Граббс, Дебора Тикер, Натали Аменула

    Сюжет фильма

    Это история забавной и немного странной дружбы между хулиганкой и прогульщицей Даниэль и чувствительным замкнутым геем Кларком. На дворе 1987 год, и они решают сбежать из скучной Оклахомы в Калифорнию на встречу своим мечтам. Дэниель надеется разыскать отца, которого никогда не видела, а Кларк, напротив, хочет спрятаться от своих родителей, которые угрожают отправить его в военную школу. В пути их, как водится, ожидает много приключений, благодаря которым они узнают цену истинной дружбы.

    Снималось в:США
    Киностудия:Weinstein Company, The, iDeal Partners Film Fund, Hart-Lunsford Pictures
    Время просмотра:01:29:40
    Перевод текста:Профессиональное (многоголосое) лицензия
    Файл
    Кодек для видео:AVI (XviD)
    Качество фильма:BDRip (Исх. BD-Remux 1080p)
    Информация о видео:688x288 (2.39:1), 23.976 fps, XviD build 73 ~1023 kbps avg, 0.22 bit/pixel
    Информация о звуке:48 kHz, MPEG Layer 3, 2 ch, ~128.00 kbps avg
    Субтитры:нет
    Семпл
    MediaInfo

    Общее
    Полное имя : S:ФильмыДрянная девчонка. 2010. BDRip (AleksSin).avi
    Формат : AVI
    Формат/Информация : Audio Video Interleave
    Размер файла : 744 Мбайт
    Продолжительность : 1 ч. 29 м.
    Общий поток : 1160 Кбит/сек
    Программа кодирования : VirtualDubMod 1.5.10.3 | www.virtualdub-fr.org || (build 2550/release)
    Библиотека кодирования : VirtualDubMod build 2550/release
    Видео
    Идентификатор : 0
    Формат : MPEG-4 Visual
    Профиль формата : Advanced Simple@L5
    Параметр BVOP формата : 1
    Параметр QPel формата : Нет
    Параметр GMC формата : Без точки перехода
    Параметр матрицы формата : Выборочная
    Идентификатор кодека : XVID
    Идентификатор кодека/Подсказка : XviD
    Продолжительность : 1 ч. 29 м.
    Битрейт : 1023 Кбит/сек
    Ширина : 688 пикс.
    Высота : 288 пикс.
    Соотношение сторон : 2,40:1
    Частота кадров : 23,976 кадр/сек
    Цветовое пространство : YUV
    Подвыборка цветности : 4:2:0
    Битовая глубина : 8 бит
    Тип развёртки : Прогрессивная
    Метод сжатия : С потерями
    Бит/(Пиксели*Кадры) : 0.215
    Размер потока : 656 Мбайт (88%)
    Библиотека кодирования : XviD 73
    Аудио
    Идентификатор : 1
    Формат : MPEG Audio
    Версия формата : Version 1
    Профиль формата : Layer 3
    Идентификатор кодека : 55
    Идентификатор кодека/Подсказка : MP3
    Продолжительность : 1 ч. 29 м.
    Вид битрейта : Постоянный
    Битрейт : 128 Кбит/сек
    Каналы : 2 канала
    Частота : 48,0 КГц
    Метод сжатия : С потерями
    Размер потока : 81,8 Мбайт (11%)
    Выравнивание : Соединение по промежуткам
    Продолжительность промежутка : 42 мс. (1,00 видеокадр)
    Время предзагрузки промежутка : 504 ms
    Библиотека кодирования : LAME3.99r
    Залил: *AleksSin*

    Онлайн видео Дрянная Девчонка


    Размер скачиваемого торрента: 743.70 MB (779825152 Bytes)


    Дрянная Девчонка/Dirty Girl (2010) BDRip от AleksSin | Лицензия
    загрузка...
    Рейтинг →
     (голосов: 1, оценка 4/5, голосовать можно 1 раз )

    Другие торренты по теме:

  • Дрянная Девчонка / Dirty Girl (2010) HDRip | Лицензия торрент скачать бесплатно
  • Дрянные девчонки 2 / Mean Girls 2 (2011) WEB-DL 720p от HDClub торрент скачать бесплатно
  • Дрянная девчонка / My Sassy Girl (2008) DVDRip от Scarabey | D торрент скачать бесплатно
  • Дрянная девчонка / My Sassy Girl (2008) DVDRip от Scarabey | D торрент скачать бесплатно
  • Дрянные девчонки / Mean Girls (2004) BDRip-AVC от HELLYWOOD | P2 торрент скачать бесплатно
  • Дрянные девчонки / Mean Girls (2004) HDRip от Scarabey | D торрент скачать бесплатно
  • Дрянная девчонка / My Sassy Girl / 2008 / ДБ / WEB-DL (720p) скачать торрент бесплатно


    • Комментарии (0):

      Информация

      Информация

        Посетители, находящиеся в группе Гости, не могут оставлять комментарии в данной новости.

        ↓ Меню



        ↓ Опрос

        А Вы добавили сайт в закладки?
        Да
        Не


        Top 10 за неделю (Фильмы)