.
Авторизация | Регистрация
» » Гнев / Tokarev (2014) HDRip от AleksSin | iTunes скачать торрент бесплатно




    Гнев / Tokarev (2014) HDRip от AleksSin | iTunes скачать торрент бесплатно

    Опубликовал: Админ | Дата: 27-03-2015, 19:00 | Просмотров: 227


    Детально о кино
    Русское название:Гнев
    Русское название в мировом прокате:Tokarev
    Создали в:2014
    Категория жанра:боевик, триллер, криминал
    Главный режиссер:Пако Кабесас/Paco Cabezas

    Актеры
    Николас Кейдж, Рэйчел Николс, Петер Стормаре, Дэнни Гловер, Обри Пиплз, Елена Санчес, Майкл МакГрэйди, Павел Личникофф, Доун Хэмил, Макс Райан

    Сюжет фильма

    Пол Магуаер — бывший гангстер, а теперь добропорядочный бизнесмен и примерный семьянин. Но когда его дочь похищают, он вынужден поднять свои старые связи и снова вернуться на скользкую дорожку…

    Снималось в:США, Франция/Hannibal Pictures, Marco Polo Production, Tokarev Production, Patriot Pictures LLC
    Время просмотра:01:38:26
    Перевод текста:Дублированный iTunes
    Файл
    Кодек для видео:AVI (XviD)
    Качество фильма:HDRip (Исх. BDRip 720p)
    Информация о видео:720x304 (2.37:1), 23.976 fps, XviD build 73 ~2194 kbps avg, 0.42 bit/pixel
    Информация о звуке #1:48 kHz, AC3 Dolby Digital, 3/2 (L,C,R,l,r) + LFE ch, ~384.00 kbps avg (Русский)
    Информация о звуке #2:48 kHz, AC3 Dolby Digital, 3/2 (L,C,R,l,r) + LFE ch, ~384.00 kbps avg (Английский)
    Субтитры:Русские, английские
    Семпл
    MediaInfo

    Общее
    Полное имя : S:ФильмыГнев. Токарев. 2014. HDRip. 2.05 (AleksSin)Гнев. Токарев. 2014. HDRip. 2.05 (AleksSin).avi
    Формат : AVI
    Формат/Информация : Audio Video Interleave
    Профиль формата : OpenDML
    Размер файла : 2,05 Гбайт
    Продолжительность : 1 ч. 38 м.
    Общий поток : 2980 Кбит/сек
    Программа кодирования : VirtualDubModRus 1.5.10.2 (build 2542/release)
    Библиотека кодирования : VirtualDubMod build 2542/release
    Видео
    Идентификатор : 0
    Формат : MPEG-4 Visual
    Профиль формата : Advanced Simple@L5
    Параметр BVOP формата : 1
    Параметр QPel формата : Нет
    Параметр GMC формата : Без точки перехода
    Параметр матрицы формата : Выборочная
    Идентификатор кодека : XVID
    Идентификатор кодека/Подсказка : XviD
    Продолжительность : 1 ч. 38 м.
    Битрейт : 2194 Кбит/сек
    Ширина : 720 пикс.
    Высота : 304 пикс.
    Соотношение сторон : 2,35:1
    Частота кадров : 23,976 кадр/сек
    Цветовое пространство : YUV
    Подвыборка цветности : 4:2:0
    Битовая глубина : 8 бит
    Тип развёртки : Прогрессивная
    Метод сжатия : С потерями
    Бит/(Пиксели*Кадры) : 0.418
    Размер потока : 1,51 Гбайт (74%)
    Библиотека кодирования : XviD 73
    Аудио #1
    Идентификатор : 1
    Формат : AC-3
    Формат/Информация : Audio Coding 3
    Расширение режима : CM (complete main)
    Идентификатор кодека : 2000
    Продолжительность : 1 ч. 38 м.
    Вид битрейта : Постоянный
    Битрейт : 384 Кбит/сек
    Каналы : 6 каналов
    Расположение каналов : Front: L C R, Side: L R, LFE
    Частота : 48,0 КГц
    Битовая глубина : 16 бит
    Метод сжатия : С потерями
    Размер потока : 270 Мбайт (13%)
    Выравнивание : Разделение по промежуткам
    Продолжительность промежутка : 42 мс. (1,00 видеокадр)
    Время предзагрузки промежутка : 500 ms
    Аудио #2
    Идентификатор : 2
    Формат : AC-3
    Формат/Информация : Audio Coding 3
    Расширение режима : CM (complete main)
    Идентификатор кодека : 2000
    Продолжительность : 1 ч. 38 м.
    Вид битрейта : Постоянный
    Битрейт : 384 Кбит/сек
    Каналы : 6 каналов
    Расположение каналов : Front: L C R, Side: L R, LFE
    Частота : 48,0 КГц
    Битовая глубина : 16 бит
    Метод сжатия : С потерями
    Размер потока : 270 Мбайт (13%)
    Выравнивание : Разделение по промежуткам
    Продолжительность промежутка : 42 мс. (1,00 видеокадр)
    Время предзагрузки промежутка : 500 ms

    Скриншоты

    Релиз подготовил:
    Залил: *AleksSin*
    Размер скачиваемого торрента: 2.05 GB (2200343328 Bytes)

    Гнев/Tokarev (2014) HDRip от AleksSin | iTunes
    загрузка...
    Рейтинг →
     (голосов: 1, оценка 3/5, голосовать можно 1 раз )

    Другие торренты по теме:

  • Гроздья гнева / The Grapes of Wrath (1940) BDRip от NovaLan торрент скачать бесплатно
  • Гнев / Man on Fire (2004) HDRip от Scarabey | D Sub торрент скачать бесплатно
  • Управление гневом / Anger Management (2013) HDTVRip 720p | LostFilm торрент скачать бесплатно
  • Агирре, Гнев Божий / Aguirre, der Zorn Gottes (1972) BDRip-AVC от Тorrent-Хzona торрент скачать бесплатно
  • Энчантия: Гнев Королевы Фениксов / Enchantia: Wrath of the Phoenix Queen CE (2013) PC торрент скачать бесплатно
  • OST - Гнев / Man on Fire (2004) MP3 торрент скачать бесплатно
  • Боги Гнева / Deus Irae (2010) DVDRip | L1 торрент скачать бесплатно
  • Звездный путь 2: Гнев Хана / Star Trek: The Wrath of Khan (1982) BDRip от HQCLUB торрент скачать бесплатно


    • Комментарии (0):

      Информация

      Информация

        Посетители, находящиеся в группе Гости, не могут оставлять комментарии в данной новости.

        ↓ Меню



        ↓ Опрос

        А Вы добавили сайт в закладки?
        Да
        Не


        Top 10 за неделю (Фильмы)