.
Авторизация | Регистрация
» » Восставший из ада 4: Кровное родство / Hellraiser: Bloodline (1996) DVD9 | P, A скачать торрент бесплатно




    Восставший из ада 4: Кровное родство / Hellraiser: Bloodline (1996) DVD9 | P, A скачать торрент бесплатно

    Опубликовал: Админ | Дата: 27-03-2015, 20:00 | Просмотров: 160


    Детально о кино
    Русское название:Восставший из ада 4: Кровное родство
    Русское название в мировом прокате:Hellraiser: Bloodline
    Создали в:1996
    Категория жанра:ужасы, фантастика
    Главный режиссер:Алан Смити

    Актеры
    Брюс Рэмсей, Валентина Варгас, Даг Брэдли, Шарлотта Чаттон, Адам Скотт, Ким Майерс, Мики Коттрелл, Луи Тюренн, Кортленд Мид, Луис Мустилльо

    Сюжет фильма

    Жуткие события происходят в 2127-ом году на космической станции Минос, Доктор Мерчант, одержимый какими-то странными, безумными идеями, захватил станцию, чтобы провести в жизнь свои таинственные эксперименты, Доктора повязали, и он рассказал, как же он дошел до жизни такой, И выяснилось, что причина безумия доктора — в магическом кубике, изготовленном мастером игрушек Ле Маршаном еще несколько столетий назад.


    лицам до 17 лет обязательно присутствие взрослого
    Снималось в:США
    Киностудия:Dimension Films, Miramax Films, Trans Atlantic Entertainment
    Время просмотра:81 мин./01:21
    Перевод текста 1:профессиональный (многоголосый, закадровый)
    Перевод текста 2:авторский (одноголосый, закадровый)
    Файл
    Кодек для видео:MPEG2
    Качество фильма:DVD9West Video
    Информация о видео:PAL 16:9 (720x576@1024x576) VBR 7670 Kbps, 25.000 fps
    Информация о звуке 1:Dolby AC3, 6 ch, 48.0 KHz, 384 Kbps(русский)
    Информация о звуке 2:Dolby AC3, 6 ch, 48.0 KHz, 384 Kbps(А.Гаврилов)
    Информация о звуке 3:Dolby AC3, 6 ch, 48.0 KHz, 384 Kbps(английский)
    Субтитры:русские, украинские
    MediaInfo
    General
    Complete name : E:Hellraiser BloodlineVIDEO_TSVTS_06_1.VOB
    Format : MPEG-PS
    File size : 1 024 MiB
    Duration : 15mn 54s
    Overall bit rate mode : Variable
    Overall bit rate : 9 002 Kbps
    Video
    ID : 224 (0xE0)
    Format : MPEG Video
    Format version : Version 2
    Format profile : Main@Main
    Format settings, BVOP : Yes
    Format settings, Matrix : Custom
    Format settings, GOP : Variable
    Format settings, picture struc : Frame
    Duration : 15mn 54s
    Bit rate mode : Variable
    Bit rate : 7 670 Kbps
    Maximum bit rate : 9 800 Kbps
    Width : 720 pixels
    Height : 576 pixels
    Display aspect ratio : 16:9
    Frame rate : 25.000 fps
    Standard : PAL
    Color space : YUV
    Chroma subsampling : 4:2:0
    Bit depth : 8 bits
    Scan type : Interlaced
    Scan order : Top Field First
    Compression mode : Lossy
    Bits/(Pixel*Frame) : 0.740
    Time code of first frame : 00:00:00:00
    Time code source : Group of pictures t_head
    GOP, Open/Closed : Closed
    Stream size : 872 MiB (85%)
    Audio #1
    ID : 189 (0xBD)-128 (0x80)
    Format : AC-3
    Format/Info : Audio Coding 3
    Mode extension : CM (complete main)
    Format settings, Endianness : Big
    Muxing mode : DVD-Video
    Duration : 15mn 53s
    Bit rate mode : Constant
    Bit rate : 384 Kbps
    Channel(s) : 6 channels
    Channel positions : Front: L C R, Side: L R, LFE
    Sampling rate : 48.0 KHz
    Bit depth : 16 bits
    Compression mode : Lossy
    Stream size : 43.7 MiB (4%)
    Audio #2
    ID : 189 (0xBD)-129 (0x81)
    Format : AC-3
    Format/Info : Audio Coding 3
    Mode extension : CM (complete main)
    Format settings, Endianness : Big
    Muxing mode : DVD-Video
    Duration : 15mn 53s
    Bit rate mode : Constant
    Bit rate : 384 Kbps
    Channel(s) : 6 channels
    Channel positions : Front: L C R, Side: L R, LFE
    Sampling rate : 48.0 KHz
    Bit depth : 16 bits
    Compression mode : Lossy
    Stream size : 43.7 MiB (4%)
    Audio #3
    ID : 189 (0xBD)-130 (0x82)
    Format : AC-3
    Format/Info : Audio Coding 3
    Mode extension : CM (complete main)
    Format settings, Endianness : Big
    Muxing mode : DVD-Video
    Duration : 15mn 53s
    Bit rate mode : Constant
    Bit rate : 384 Kbps
    Channel(s) : 6 channels
    Channel positions : Front: L C R, Side: L R, LFE
    Sampling rate : 48.0 KHz
    Bit depth : 16 bits
    Compression mode : Lossy
    Stream size : 43.7 MiB (4%)
    Menu
    Скриншоты


    Залил: carisha

    Онлайн видео Восставший из ада 4: Кровное родство


    Размер скачиваемого торрента: 5.79 GB (6211983360 Bytes)

    Восставший из ада 4: Кровное родство/Hellraiser: Bloodline (1996) DVD9 | P, A
    загрузка...
    Рейтинг →
     (голосов: 1, оценка 3/5, голосовать можно 1 раз )

    Другие торренты по теме:



      Комментарии (0):

      Информация

      Информация

        Посетители, находящиеся в группе Гости, не могут оставлять комментарии в данной новости.

        ↓ Меню



        ↓ Опрос

        А Вы добавили сайт в закладки?
        Да
        Не


        Top 10 за неделю (Фильмы)