.
Авторизация | Регистрация
» » Глушь / The Backcountry (2014) WEB-DLRip-AVC | L1 скачать торрент бесплатно




    Глушь / The Backcountry (2014) WEB-DLRip-AVC | L1 скачать торрент бесплатно

    Опубликовал: Админ | Дата: 27-03-2015, 21:00 | Просмотров: 188


    Детально о кино
    Русское название:Глушь
    Русское название в мировом прокате:The Backcountry
    Создали в:2014
    Категория жанра:ужасы, триллер, драма
    Главный режиссер:Адам МакДональд

    Актеры
    Мисси Перегрим, Эрик Бальфур, Николас Кэмпбелл, Мелани Маллен, Джефф Руп, Эшли Нэй и др.

    Сюжет фильма

    Городская пара оказалась без провианта посреди дикой глуши на территории хищного черного медведя.

    Снималось в:Канада
    Киностудия:Fella Films, Northern Ontario Heritage Fund, T?l?film Canada
    Время просмотра:01:31:31
    Перевод текста:Любительский (одноголосый закадровый)Хихикающий доктор
    Файл
    Кодек для видео:MPEG-4 AVC (MKV)
    Качество фильма:WEB-DLRip-AVC
    Информация о видео:AVC, 1024x424, 2850 Kbps
    Информация о звуке:Russian: AC3, 2 ch, 192 Kbps/English: AC3, 6 ch, 384 Kbps
    Субтитры:English (вшитые, отключаемые)

    Скриншоты
    MediaInfo
    General
    Unique ID : 183949689886776077774143844039198441122 (0x8A636BEE113AEA7FBC13382781F2FEA2)
    Complete name : G:ДИСК 21.ФИЛЬМЫГлушь The Backcountry (2014)The Backcountry (2014) WEB-DLRip-AVC.mkv
    Format : Matroska
    Format version : Version 4/Version 2
    File size : 2.19 GiB
    Duration : 1h 31mn
    Overall bit rate : 3 426 Kbps
    Encoded date : UTC 2015-03-27 16:05:29
    Writing application : mkvmerge v7.5.0 (;Glass Culture;) 64bit built on Jan 4 2015 16:48:44
    Writing library : libebml v1.3.1 + libmatroska v1.4.2
    DURATION : 01:14:35.403000000
    NUMBER_OF_FRAMES : 727
    NUMBER_OF_BYTES : 28785
    _STATISTICS_WRITING_APP : mkvmerge v7.5.0 (;Glass Culture;) 64bit built on Jan 4 2015 16:48:44
    _STATISTICS_WRITING_DATE_UTC : 2015-03-27 16:05:29
    _STATISTICS_TAGS : BPS DURATION NUMBER_OF_FRAMES NUMBER_OF_BYTES
    Video
    ID : 1
    Format : AVC
    Format/Info : Advanced Video Codec
    Format profile : High@L4.1
    Format settings, CABAC : Yes
    Format settings, ReFrames : 8 frames
    Codec ID : V_MPEG4/ISO/AVC
    Duration : 1h 31mn
    Bit rate : 2 850 Kbps
    Width : 1 024 pixels
    Height : 424 pixels
    Display aspect ratio : 2.40:1
    Frame rate mode : Constant
    Frame rate : 23.976 fps
    Color space : YUV
    Chroma subsampling : 4:2:0
    Bit depth : 8 bits
    Scan type : Progressive
    Bits/(Pixel*Frame) : 0.274
    Stream size : 1.78 GiB (81%)
    Writing library : x264 core 130 r2273 b3065e6
    Encoding settings : cabac=1/ref=8/deblock=1:-3:-3/analyse=0x3:0x133/me=umh/subme=8/psy=1/psy_rd=1.00:0.20/mixed_ref=1/me_range=32/chroma_me=1/trellis=2/8x8dct=1/cqm=0/deadzone=21,11/fast_pskip=0/chroma_qp_offset=-3/threads=6/lookahead_threads=3/sliced_threads=0/nr=0/decimate=0/interlaced=0/bluray_compat=0/constrained_intra=0/bframes=10/b_pyramid=2/b_adapt=2/b_bias=0/direct=3/weightb=1/open_gop=0/weightp=2/keyint=240/keyint_min=23/scenecut=40/intra_refresh=0/rc_lookahead=50/rc=2pass/mbtree=1/bitrate=2850/ratetol=1.0/qcomp=0.60/qpmin=0/qpmax=69/qpstep=4/cplxblur=20.0/qblur=0.5/ip_ratio=1.40/aq=1:1.00
    Language : English
    Default : Yes
    Forced : No
    Audio #1
    ID : 2
    Format : AC-3
    Format/Info : Audio Coding 3
    Mode extension : CM (complete main)
    Format settings, Endianness : Big
    Codec ID : A_AC3
    Duration : 1h 31mn
    Bit rate mode : Constant
    Bit rate : 192 Kbps
    Channel(s) : 2 channels
    Channel positions : Front: L R
    Sampling rate : 44.1 KHz
    Bit depth : 16 bits
    Compression mode : Lossy
    Stream size : 126 MiB (6%)
    Title : Хихикающий доктор
    Language : Russian
    Default : Yes
    Forced : No
    Audio #2
    ID : 3
    Format : AC-3
    Format/Info : Audio Coding 3
    Mode extension : CM (complete main)
    Format settings, Endianness : Big
    Codec ID : A_AC3
    Duration : 1h 31mn
    Bit rate mode : Constant
    Bit rate : 384 Kbps
    Channel(s) : 6 channels
    Channel positions : Front: L C R, Side: L R, LFE
    Sampling rate : 48.0 KHz
    Bit depth : 16 bits
    Compression mode : Lossy
    Stream size : 251 MiB (11%)
    Language : English
    Default : No
    Forced : No
    Text
    ID : 4
    Format : UTF-8
    Codec ID : S_TEXT/UTF8
    Codec ID/Info : UTF-8 Plain Text
    Language : English
    Default : No
    Forced : No
    Menu
    00:00:00.000 : en:1
    00:10:26.000 : en:2
    00:26:52.000 : en:3
    00:37:42.000 : en:4
    00:48:56.000 : en:5
    01:04:26.000 : en:6
    01:14:46.000 : en:7
    01:26:09.000 : en:8

    Размер скачиваемого торрента: 2.19 GB (2351819526 Bytes)

    Глушь/The Backcountry (2014) WEB-DLRip-AVC | L1
    загрузка...
    Рейтинг →
     (голосов: 1, оценка 5/5, голосовать можно 1 раз )

    Другие торренты по теме:

  • Игра на выживание / Лесная глушь / Backwoods (2008) DVDRip от dumbia скачать через торрент бесплатно
  • Глушь / Backcountry (2014) WEB-DLRip | L1 скачать торрент бесплатно
  • Глушь / Backcountry (2014) BDRemux 1080p от HDClub | Есарев скачать торрент бесплатно
  • Глушь / Backcountry (2014) BDRip от Twi7ter | Есарев скачать торрент бесплатно
  • Глушь / Backcountry (2014) BDRip-AVC от HELLYWOOD | A скачать торрент бесплатно


    • Комментарии (0):

      Информация

      Информация

        Посетители, находящиеся в группе Гости, не могут оставлять комментарии в данной новости.

        ↓ Меню



        ↓ Опрос

        А Вы добавили сайт в закладки?
        Да
        Не


        Top 10 за неделю (Фильмы)