.
Авторизация | Регистрация
» » Пыль войны / Dust of War (2013) DVDRemux | L1 скачать торрент бесплатно




    Пыль войны / Dust of War (2013) DVDRemux | L1 скачать торрент бесплатно

    Опубликовал: Админ | Дата: 28-03-2015, 17:00 | Просмотров: 208


    Детально о кино
    Русское название:Пыль войны
    Русское название в мировом прокате:Dust of War
    Создали в:2013
    Категория жанра:Фантастика, боевик
    Главный режиссер:Эндрю Кайтлингер

    Актеры
    Тони Тодд, Люк Шуцле, Бейтс Уайлдер, Джордан МакФедден, Гари Грэхэм, Даг Джонс, Хэнк Остендорф, Дэвид Мидфандер, Тристан Барнард, Джон Кромуэлл

    Сюжет фильма

    Фильм перенесёт нас в недалёкое, но не самое приятное будущее. Мир пережил ужасный апокалипсис, в результате которого погибла большая часть населения планеты. Все события происходят в полуразрушенных штатах Америки. Именно там в беду попала девушка, которая является единственной надеждой человечества на спасение. Главный герой спасает её от смерти и даёт ей обещание помочь добраться до безопасного места. В этом ему помогут двое мужчин – ветеран былой войны и хитрый вор. Вчетвером герои отправляются в опасный путь, который не сулит ничего хорошего. За ними будут охотиться встречные пилигримы, убийцы, наёмники и даже странствующие бизнесмены.
    Снята кинокартина в лучших традициях жанра и своей атмосферностью напоминает небезызвестного Безумного Макса.

    Снималось в:США
    Киностудия:Cassiopeia Pictures, KandamarK, Labyrinth Films (II), Schuetzle Company
    Время просмотра:01:27:09
    Перевод текста:Любительский (одноголосый) Хихикающий доктор
    Файл
    Кодек для видео:MPEG-2 Video (PAL)
    Качество фильма:DVDRemux
    Информация о видео:5167 kb/s, (16:9), 720x576
    Информация о звуке:
    Аудио#1: MP3, 192 kb/s, (2 ch) |Русский
    Аудио#2: AC3, 448 kb/s, (6 ch) |Английский
    Семпл
    MI
    Format : Matroska
    Format version : Version 4/Version 2
    File size : 3.61 GiB
    Duration : 1h 27mn
    Overall bit rate mode : Variable
    Overall bit rate : 5 925 Kbps
    Encoded date : UTC 2015-03-27 15:49:11
    Writing application : mkvmerge v7.3.0 (;Nouages;) 64bit built on Oct 22 2014 18:53:34
    Writing library : libebml v1.3.0 + libmatroska v1.4.1
    DURATION : 01:27:09.113000000
    NUMBER_OF_FRAMES : 200177
    NUMBER_OF_BYTES : 125498723
    _STATISTICS_WRITING_APP : mkvmerge v7.3.0 (;Nouages;) 64bit built on Oct 22 2014 18:53:34
    _STATISTICS_WRITING_DATE_UT : 2015-03-27 15:49:11
    _STATISTICS_TAGS : BPS DURATION NUMBER_OF_FRAMES NUMBER_OF_BYTES
    Video
    ID : 1
    Format : MPEG Video
    Format version : Version 2
    Format profile : Main@Main
    Format settings, BVOP : Yes
    Format settings, Matrix : Default
    Format settings, GOP : M=3, N=12
    Codec ID : V_MPEG2
    Codec ID/Info : MPEG 1 or 2 Video
    Duration : 1h 27mn
    Bit rate mode : Variable
    Bit rate : 5 167 Kbps
    Maximum bit rate : 8 304 Kbps
    Width : 720 pixels
    Height : 576 pixels
    Display aspect ratio : 16:9
    Frame rate mode : Constant
    Frame rate : 25.000 fps
    Standard : PAL
    Color space : YUV
    Chroma subsampling : 4:2:0
    Bit depth : 8 bits
    Scan type : Progressive
    Compression mode : Lossy
    Bits/(Pixel*Frame) : 0.498
    Time code of first frame : 00:00:00:00
    Time code source : Group of pictures t_head
    GOP, Open/Closed : Closed
    Stream size : 3.15 GiB (87%)
    Language : English
    Default : No
    Forced : No
    DURATION : 01:27:09.320000000
    NUMBER_OF_FRAMES : 130733
    NUMBER_OF_BYTES : 3452772604
    _STATISTICS_WRITING_APP : mkvmerge v7.3.0 (;Nouages;) 64bit built on Oct 22 2014 18:53:34
    _STATISTICS_WRITING_DATE_UT : 2015-03-27 15:49:11
    _STATISTICS_TAGS : BPS DURATION NUMBER_OF_FRAMES NUMBER_OF_BYTES
    Audio #1
    ID : 2
    Format : MPEG Audio
    Format version : Version 1
    Format profile : Layer 3
    Codec ID : A_MPEG/L3
    Codec ID/Hint : MP3
    Duration : 1h 27mn
    Bit rate mode : Constant
    Bit rate : 192 Kbps
    Channel(s) : 2 channels
    Sampling rate : 44.1 KHz
    Compression mode : Lossy
    Stream size : 120 MiB (3%)
    Title : L1-Хихидок
    Language : Russian
    Default : Yes
    Forced : Yes
    DURATION : 01:27:09.312000000
    NUMBER_OF_FRAMES : 163416
    NUMBER_OF_BYTES : 292841472
    _STATISTICS_WRITING_APP : mkvmerge v7.3.0 (;Nouages;) 64bit built on Oct 22 2014 18:53:34
    _STATISTICS_WRITING_DATE_UT : 2015-03-27 15:49:11
    _STATISTICS_TAGS : BPS DURATION NUMBER_OF_FRAMES NUMBER_OF_BYTES
    Audio #2
    ID : 3
    Format : AC-3
    Format/Info : Audio Coding 3
    Mode extension : CM (complete main)
    Format settings, Endianness : Big
    Codec ID : A_AC3
    Duration : 1h 27mn
    Bit rate mode : Constant
    Bit rate : 448 Kbps
    Channel(s) : 6 channels
    Channel positions : Front: L C R, Side: L R, LFE
    Sampling rate : 48.0 KHz
    Bit depth : 16 bits
    Compression mode : Lossy
    Stream size : 279 MiB (8%)
    Title : Surround 5.1
    Language : English
    Default : No
    Forced : No
    Menu
    00:00:00.080 : en:Chapter 01
    00:17:32.680 : en:Chapter 02
    00:28:39.200 : en:Chapter 03
    00:45:35.280 : en:Chapter 04
    00:58:16.080 : en:Chapter 05
    01:08:02.880 : en:Chapter 06
    01:21:55.000 : en:Chapter 07

    Скриншоты


    Онлайн видео Пыль войны


    Размер скачиваемого торрента: 3.61 GB (3873005331 Bytes)

    Пыль войны/Dust of War (2013) DVDRemux | L1
    загрузка...
    Рейтинг →
     (голосов: 1, оценка 4/5, голосовать можно 1 раз )

    Другие торренты по теме:



      Комментарии (0):

      Информация

      Информация

        Посетители, находящиеся в группе Гости, не могут оставлять комментарии в данной новости.

        ↓ Меню



        ↓ Опрос

        А Вы добавили сайт в закладки?
        Да
        Не


        Top 10 за неделю (Фильмы)