.
Авторизация | Регистрация
» » Золушка / Cinderella (2015) TS 720p | Чистый звук скачать торрент бесплатно




    Золушка / Cinderella (2015) TS 720p | Чистый звук скачать торрент бесплатно

    Опубликовал: Админ | Дата: 30-03-2015, 16:00 | Просмотров: 179


    Детально о кино
    Русское название:Золушка
    Русское название в мировом прокате:Cinderella
    Создали в:2015
    Категория жанра:фэнтези, драма, мелодрама, приключения, семейный
    Главный режиссер:Кеннет Брана

    Актеры
    Лили Джеймс, Кейт Бланшетт, Ричард Мэдден, Хелена Бонем Картер, Нонсо Анози, Стеллан Скарсгард, Софи МакШера, Холлидей Грейнджер, Дерек Джекоби, Бен Чаплин

    Сюжет фильма
    Отец молодой девушки по имени Элла, овдовев, женится во второй раз, и вскоре Элла оказывается один на один с жадными и завистливыми новыми родственницами — мачехой Леди Тремэйн и ее дочерьми — Анастасией и Дризеллой. Из хозяйки дома она превращается в служанку, вечно испачканную золой, за что и получает от своих сварливых сводных сестриц прозвище — Золушка. Несмотря на злоключения, выпавшие на ее долю, Золушка не отчаивается, ведь даже в самые тяжелые моменты находится что-то, что помогает ей думать о хорошем: например, случайная встреча на лесной тропинке с прекрасным юношей. Элла даже не предполагает, что встретилась с самим принцем, и что вскоре Фея-крестная навсегда поменяет её жизнь к лучшему.

    Время просмотра:01:45:13
    Качество фильма видео:TS 720p
    Перевод текста:Дублированный (Чистый звук)
    Субтитры:Отсутствуют
    Примечание:Присутствует 6 минут вставок звука с TS!
    Информация о видеокодек:MPEG-4 AVC/H.264
    Битрейт видео:~2736 kbps
    Размер скачиваемого торрента кадра:1280x576
    Информация о звукекодек:AC3 2.0
    Битрейт аудио:128 kbps
    Семпл
    MI
    Общее
    Уникальный идентификатор : 184519373300424538747871694223762735335 (0x8AD1237DA431F32682376D5E452F40E7)
    Полное имя : D:ФильмыZolushka.2015.TS.720p.mkv
    Формат : Matroska
    Версия формата : Version 4/Version 2
    Размер файла : 2,15 Гбайт
    Продолжительность : 1 ч. 45 м.
    Общий поток : 2923 Кбит/сек
    Дата кодирования : UTC 2015-03-25 10:24:03
    Программа кодирования : mkvmerge v7.7.0 (;Six Voices;) 64bit built on Feb 28 2015 23:39:33
    Библиотека кодирования : libebml v1.3.1 + libmatroska v1.4.2
    Attachements : Cinderella.jpg
    DURATION : 01:45:12.672000000
    NUMBER_OF_FRAMES : 197271
    NUMBER_OF_BYTES : 101002752
    _STATISTICS_WRITING_APP : mkvmerge v7.7.0 (;Six Voices;) 64bit built on Feb 28 2015 23:39:33
    _STATISTICS_WRITING_DATE_UTC : 2015-03-25 10:24:03
    _STATISTICS_TAGS : BPS DURATION NUMBER_OF_FRAMES NUMBER_OF_BYTES
    Видео
    Идентификатор : 1
    Формат : AVC
    Формат/Информация : Advanced Video Codec
    Профиль формата : High@L4.1
    Параметр CABAC формата : Да
    Параметр ReFrames формата : 5 кадров
    Идентификатор кодека : V_MPEG4/ISO/AVC
    Продолжительность : 1 ч. 45 м.
    Битрейт : 2736 Кбит/сек
    Ширина : 1280 пикселей
    Высота : 576 пикселей
    Соотношение сторон : 2,222
    Режим частоты кадров : Постоянный
    Частота кадров : 23,976 кадра/сек
    Цветовое пространство : YUV
    Субдискретизация насыщенности : 4:2:0
    Битовая глубина : 8 бит
    Тип развёртки : Прогрессивная
    Бит/(Пиксели*Кадры) : 0.155
    Размер потока : 2,01 Гбайт (94%)
    Заголовок : Cinderella.2015.TS.720p
    Default : Да
    Forced : Нет
    Аудио
    Идентификатор : 2
    Формат : AC-3
    Формат/Информация : Audio Coding 3
    Расширение режима : CM (complete main)
    Параметр Endianness формата : Big
    Идентификатор кодека : A_AC3
    Продолжительность : 1 ч. 45 м.
    Вид битрейта : Постоянный
    Битрейт : 128 Кбит/сек
    Каналы : 2 канала
    Расположение каналов : Front: L R
    Частота : 48,0 КГц
    Битовая глубина : 16 бит
    Метод сжатия : С потерями
    Размер потока : 96,3 Мбайт (4%)
    Default : Да
    Forced : Нет

    Скриншоты

    Релиз подготовил:
    Залил: aleksndr

    Онлайн видео Золушка


    Размер скачиваемого торрента: 2.15 GB (2306167071 Bytes)

    Золушка/Cinderella (2015) TS 720p | Чистый звук
    загрузка...
    Рейтинг →
     (голосов: 1, оценка 5/5, голосовать можно 1 раз )

    Другие торренты по теме:



      Комментарии (0):

      Информация

      Информация

        Посетители, находящиеся в группе Гости, не могут оставлять комментарии в данной новости.

        ↓ Меню



        ↓ Опрос

        А Вы добавили сайт в закладки?
        Да
        Не


        Top 10 за неделю (Фильмы)