.
Авторизация | Регистрация
Хочешь лучшие торренты? Добавь свой email!
Добавить
» » Сочувствие господину Месть / Boksuneun naui geot (2002) DVD9 | P торрент скачать бесплатно




    Сочувствие господину Месть / Boksuneun naui geot (2002) DVD9 | P торрент скачать бесплатно

    Опубликовал: Админ | Дата: 2-04-2015, 00:00 | Просмотров: 240


    Детально о кино
    Русское название:Сочувствие господину Месть
    Русское название в мировом прокате:Boksuneun naui geot
    Создали в:2002
    Категория жанра:драма, криминал
    Главный режиссер:Пак Чхан Ук

    Актеры
    Сон Кан Хо, Син Ха Гюн, Пэ Ду На, Чжи-ын Лим, Хан Бо Бэ, Ким Се Дон, Ли Дэ Ён, Масаси Фудзимото, Ки Джу Бон, Чжон Гю Сю

    Сюжет фильма

    История глухонемого Рю и его сестры, которой нужно пересадить почку. Начальник Рю, Пак, только что уволил его, и Рю со своей подружкой решают похитить дочь Пака, чтобы на полученный выкуп сделать трансплантацию. Но все идет катастрофически не так, и ситуация очень скоро перерастает в лавину насилия и мести…
    Снималось в:Южная Корея
    Киностудия:CJ Entertainment, Studio Box
    Время просмотра:116 мин./01:56
    Перевод текста:профессиональный (многоголосый, закадровый)
    Файл
    Кодек для видео:MPEG2
    Качество фильма:DVD9Cinema Prestige
    Информация о видео:PAL 16:9 (720x576@1024x576) VBR 6069 Kbps, 25.000 fps
    Информация о звуке 1:DTS 6 ch, 48.0 KHz, 768 Kbps(русский, корейский)
    Информация о звуке 2:Dolby AC3, 6 ch, 48.0 KHz, 384 Kbps(русский, корейский)
    Информация о звуке 3:Dolby AC3, 2 ch, 48.0 KHz, 192 Kbps(комментарии)
    Субтитры:русские
    MediaInfo
    General
    Complete name : D:Сочувствие господину Месть.DVD9VIDEO_TSVTS_04_1.VOB
    Format : MPEG-PS
    File size : 1 024 MiB
    Duration : 16mn 26s
    Overall bit rate mode : Variable
    Overall bit rate : 8 711 Kbps
    Video
    ID : 224 (0xE0)
    Format : MPEG Video
    Format version : Version 2
    Format profile : Main@Main
    Format settings, BVOP : Yes
    Format settings, Matrix : Custom
    Format settings, GOP : Variable
    Format settings, picture struc : Frame
    Duration : 16mn 26s
    Bit rate mode : Variable
    Bit rate : 6 069 Kbps
    Maximum bit rate : 6 800 Kbps
    Width : 720 pixels
    Height : 576 pixels
    Display aspect ratio : 16:9
    Frame rate : 25.000 fps
    Standard : PAL
    Color space : YUV
    Chroma subsampling : 4:2:0
    Bit depth : 8 bits
    Scan type : Interlaced
    Scan order : Top Field First
    Compression mode : Lossy
    Bits/(Pixel*Frame) : 0.585
    Time code of first frame : 09:59:59:11
    Time code source : Group of pictures t_head
    GOP, Open/Closed : Open
    Stream size : 713 MiB (70%)
    Audio #1
    ID : 189 (0xBD)-128 (0x80)
    Format : AC-3
    Format/Info : Audio Coding 3
    Mode extension : CM (complete main)
    Format settings, Endianness : Big
    Muxing mode : DVD-Video
    Duration : 16mn 25s
    Bit rate mode : Constant
    Bit rate : 384 Kbps
    Channel(s) : 6 channels
    Channel positions : Front: L C R, Side: L R, LFE
    Sampling rate : 48.0 KHz
    Bit depth : 16 bits
    Compression mode : Lossy
    Delay relative to video : -80ms
    Stream size : 45.1 MiB (4%)
    Audio #2
    ID : 189 (0xBD)-129 (0x81)
    Format : AC-3
    Format/Info : Audio Coding 3
    Mode extension : CM (complete main)
    Format settings, Endianness : Big
    Muxing mode : DVD-Video
    Duration : 16mn 25s
    Bit rate mode : Constant
    Bit rate : 384 Kbps
    Channel(s) : 6 channels
    Channel positions : Front: L C R, Side: L R, LFE
    Sampling rate : 48.0 KHz
    Bit depth : 16 bits
    Compression mode : Lossy
    Delay relative to video : -80ms
    Stream size : 45.1 MiB (4%)
    Audio #3
    ID : 189 (0xBD)-132 (0x84)
    Format : AC-3
    Format/Info : Audio Coding 3
    Mode extension : CM (complete main)
    Format settings, Endianness : Big
    Muxing mode : DVD-Video
    Duration : 16mn 25s
    Bit rate mode : Constant
    Bit rate : 192 Kbps
    Channel(s) : 2 channels
    Channel positions : Front: L R
    Sampling rate : 48.0 KHz
    Bit depth : 16 bits
    Compression mode : Lossy
    Delay relative to video : -80ms
    Stream size : 22.6 MiB (2%)
    Audio #4
    ID : 189 (0xBD)-138 (0x8A)
    Format : DTS
    Format/Info : Digital Theater Systems
    Mode : 16
    Format settings, Endianness : Big
    Muxing mode : DVD-Video
    Duration : 16mn 25s
    Bit rate mode : Constant
    Bit rate : 755 Kbps
    Channel(s) : 6 channels
    Channel positions : Front: L C R, Side: L R, LFE
    Sampling rate : 48.0 KHz
    Bit depth : 24 bits
    Compression mode : Lossy
    Delay relative to video : -80ms
    Stream size : 88.7 MiB (9%)
    Audio #5
    ID : 189 (0xBD)-139 (0x8B)
    Format : DTS
    Format/Info : Digital Theater Systems
    Mode : 16
    Format settings, Endianness : Big
    Muxing mode : DVD-Video
    Duration : 16mn 25s
    Bit rate mode : Constant
    Bit rate : 755 Kbps
    Channel(s) : 6 channels
    Channel positions : Front: L C R, Side: L R, LFE
    Sampling rate : 48.0 KHz
    Bit depth : 24 bits
    Compression mode : Lossy
    Stream size : 88.7 MiB (9%)
    Text #1
    ID : 189 (0xBD)-32 (0x20)
    Format : RLE
    Format/Info : Run-length encoding
    Muxing mode : DVD-Video
    Text #2
    ID : 189 (0xBD)-33 (0x21)
    Format : RLE
    Format/Info : Run-length encoding
    Muxing mode : DVD-Video
    Menu
    Скриншоты


    Залил: carisha

    Онлайн видео Сочувствие господину Месть


    Размер скачиваемого торрента: 7.34 GB (7880419328 Bytes)

    Сочувствие господину Месть/Boksuneun naui geot (2002) DVD9 | P
    загрузка...
    Рейтинг →
     (голосов: 1, оценка 4/5, голосовать можно 1 раз )

    Другие торренты по теме:

  • Сочувствие господину Месть / Boksuneun naui geota (2002) BDRip-AVC | iPad | P скачать через торрент бесплатно
  • Сочувствие господину Месть / Boksuneun naui geot (2002) BDRip 1080p | P2, A
  • Сочувствие господину Месть / Boksuneun naui geot (2002) BDRemux 1080p | P, P2, A, L1


    • Комментарии (0):

      Информация

      Информация

        Посетители, находящиеся в группе Гости, не могут оставлять комментарии в данной новости.

        ↓ Меню



        ↓ Опрос

        А Вы добавили сайт в закладки?
        Да
        Не


        Top 10 за месяц (Фильмы)