.
Авторизация | Регистрация
Хочешь лучшие торренты? Добавь свой email!
Добавить
» » Самый жестокий год / A Most Violent Year (2014) HDRip от AleksSin | L1 торрент скачать бесплатно




    Самый жестокий год / A Most Violent Year (2014) HDRip от AleksSin | L1 торрент скачать бесплатно

    Опубликовал: Админ | Дата: 3-04-2015, 09:00 | Просмотров: 297


    Детально о кино
    Русское название:Самый жестокий год
    Русское название в мировом прокате:A Most Violent Year
    Создали в:2014
    Категория жанра:боевик, триллер, драма, криминал
    Главный режиссер:Джей Си Чендор

    Актеры
    Оскар Айзек, Джессика Честейн, Дэвид Ойелоуо, Алессандро Нивола, Альберт Брукс, Элиес Габел, Каталина Сандино Морено, Питер Герети, Кристофер Эбботт, Эшли Уильямс

    Сюжет фильма

    События фильма разворачиваются преимущественно на Манхэттене начала 1980-х годов, когда был зафиксирован всплеск уровня преступности. Главный герой — иммигрант из латинской Америки, прибывший в США с амбициозными мечтами и вскоре действительно добившийся большого успеха в бизнесе. Однако уличная преступность, охватившая Нью-Йорк, коррупция и моральное разложение создают для него и его семьи большие проблемы.

    Снималось в:США
    Киностудия:Before The Door Pictures, FilmNation Entertainment, Imagenation Abu Dhabi FZ, Old Bull Pictures, Participant Media, Washington Square Films
    Время просмотра:02:04:56
    Перевод текста:Любительский одноголосый Paul Bunyan
    Файл
    Кодек для видео:AVI (XviD)
    Качество фильма:HDRip (Исх. BDRip 720p)
    Информация о видео:720x304 (2.37:1), 23.976 fps, XviD build 73 ~1267 kbps avg, 0.24 bit/pixel
    Информация о звуке:48 kHz, AC3 Dolby Digital, 3/2 (L,C,R,l,r) + LFE ch, ~384.00 kbps avg
    Субтитры:нет
    Семпл
    MediaInfo

    Общее
    Полное имя : S:ФильмыСамый жестокий год. 2014. HDRip. 1.45 (AleksSin).avi
    Формат : AVI
    Формат/Информация : Audio Video Interleave
    Размер файла : 1,45 Гбайт
    Продолжительность : 2 ч. 4 м.
    Общий поток : 1660 Кбит/сек
    Программа кодирования : VirtualDubMod 1.5.10.3 | www.virtualdub-fr.org || (build 2550/release)
    Библиотека кодирования : VirtualDubMod build 2550/release
    Видео
    Идентификатор : 0
    Формат : MPEG-4 Visual
    Профиль формата : Advanced Simple@L5
    Параметр BVOP формата : 1
    Параметр QPel формата : Нет
    Параметр GMC формата : Без точки перехода
    Параметр матрицы формата : Выборочная
    Идентификатор кодека : XVID
    Идентификатор кодека/Подсказка : XviD
    Продолжительность : 2 ч. 4 м.
    Битрейт : 1267 Кбит/сек
    Ширина : 720 пикс.
    Высота : 304 пикс.
    Соотношение сторон : 2,35:1
    Частота кадров : 23,976 кадр/сек
    Цветовое пространство : YUV
    Подвыборка цветности : 4:2:0
    Битовая глубина : 8 бит
    Тип развёртки : Прогрессивная
    Метод сжатия : С потерями
    Бит/(Пиксели*Кадры) : 0.241
    Размер потока : 1,11 Гбайт (76%)
    Библиотека кодирования : XviD 73
    Аудио
    Идентификатор : 1
    Формат : AC-3
    Формат/Информация : Audio Coding 3
    Расширение режима : CM (complete main)
    Идентификатор кодека : 2000
    Продолжительность : 2 ч. 4 м.
    Вид битрейта : Постоянный
    Битрейт : 384 Кбит/сек
    Каналы : 6 каналов
    Расположение каналов : Front: L C R, Side: L R, LFE
    Частота : 48,0 КГц
    Битовая глубина : 16 бит
    Метод сжатия : С потерями
    Размер потока : 343 Мбайт (23%)
    Выравнивание : Разделение по промежуткам
    Продолжительность промежутка : 42 мс. (1,00 видеокадр)
    Время предзагрузки промежутка : 500 ms

    Скриншоты

    Релиз подготовил:
    Залил: *AleksSin*

    Онлайн видео Самый жестокий год


    Размер скачиваемого торрента: 1.45 GB (1555757056 Bytes)

    Самый жестокий год/A Most Violent Year (2014) HDRip от AleksSin | L1
    загрузка...
    Рейтинг →
     (голосов: 1, оценка 3/5, голосовать можно 1 раз )

    Другие торренты по теме:

  • Самый жестокий год / A Most Violent Year (2014) HDRip | L1
  • Самый жестокий год / A Most Violent Year (2014) BDRip 720p | L2
  • Самый жестокий год / A Most Violent Year (2014) HDRip | L2


    • Комментарии (0):

      Информация

      Информация

        Посетители, находящиеся в группе Гости, не могут оставлять комментарии в данной новости.

        ↓ Меню



        ↓ Опрос

        А Вы добавили сайт в закладки?
        Да
        Не


        Top 10 за месяц (Фильмы)