.
Авторизация | Регистрация
» » Сочувствие госпоже Месть / Chinjeolhan geumjassi (2005) DVD9 | D скачать торрент бесплатно




    Сочувствие госпоже Месть / Chinjeolhan geumjassi (2005) DVD9 | D скачать торрент бесплатно

    Опубликовал: Админ | Дата: 3-04-2015, 16:00 | Просмотров: 203

    Детально о кино
    Русское название:Сочувствие госпоже Месть
    Русское название в мировом прокате:Chinjeolhan geumjassi
    Создали в:2005
    Категория жанра:триллер, драма, криминал
    Главный режиссер:Пак Чхан Ук

    Актеры
    Ли Ён Э, Чхве Мин Сик, Ким Ши Ху, Квон Йе Ён, Тони Бэрри, Энн Кординер, Го Су Хи, Кан Хё Чжун, Ким Пу Сон, Ким Пён Ок

    Сюжет фильма

    Гым Чжа Ли в 19 лет попадает в тюрьму за похищение и убийство ребенка по ложному обвинению. В тюрьме она вынашивает план мести и завоевывает сердца заключенных собственной добротой, получив имя Сердечная госпожа Гым Чжа. Отсидев 13 лет, Гым Чжа отправляется разыскивать предателя с помощью ее давних тюремных товарищей.

    Снималось в:Южная Корея
    Киностудия:CJ Capital Investment, Moho Films
    Время просмотра:110 мин./01:50
    Перевод текста:полное дублирование
    Файл
    Кодек для видео:MPEG2
    Качество фильма:DVD9Cinema Prestige
    Информация о видео:PAL 16:9 (720x576@1024x576) VBR 6421 Kbps, 25.000 fps
    Информация о звуке 1:DTS 6 ch, 48.0 KHz, 768 Kbps(русский, корейский)
    Информация о звуке 2:Dolby AC3, 6 ch, 48.0 KHz, 384 Kbps(русский, корейский)
    Информация о звуке 3:Dolby AC3, 2 ch, 48.0 KHz, 192 Kbps(комментарии)
    Субтитры:русские
    MediaInfo
    General
    Complete name : D:Сочувствие госпоже Месть.DVD9VIDEO_TSVTS_04_1.VOB
    Format : MPEG-PS
    File size : 1 024 MiB
    Duration : 15mn 27s
    Overall bit rate mode : Variable
    Overall bit rate : 9 266 Kbps
    Video
    ID : 224 (0xE0)
    Format : MPEG Video
    Format version : Version 2
    Format profile : Main@Main
    Format settings, BVOP : Yes
    Format settings, Matrix : Custom
    Format settings, GOP : Variable
    Format settings, picture struc : Frame
    Duration : 15mn 27s
    Bit rate mode : Variable
    Bit rate : 6 421 Kbps
    Maximum bit rate : 7 000 Kbps
    Width : 720 pixels
    Height : 576 pixels
    Display aspect ratio : 16:9
    Frame rate : 25.000 fps
    Standard : PAL
    Color space : YUV
    Chroma subsampling : 4:2:0
    Bit depth : 8 bits
    Scan type : Interlaced
    Scan order : Top Field First
    Compression mode : Lossy
    Bits/(Pixel*Frame) : 0.619
    Time code of first frame : 09:59:59:12
    Time code source : Group of pictures t_head
    GOP, Open/Closed : Open
    Stream size : 710 MiB (69%)
    Audio #1
    ID : 189 (0xBD)-128 (0x80)
    Format : AC-3
    Format/Info : Audio Coding 3
    Mode extension : CM (complete main)
    Format settings, Endianness : Big
    Muxing mode : DVD-Video
    Duration : 15mn 26s
    Bit rate mode : Constant
    Bit rate : 384 Kbps
    Channel(s) : 6 channels
    Channel positions : Front: L C R, Side: L R, LFE
    Sampling rate : 48.0 KHz
    Bit depth : 16 bits
    Compression mode : Lossy
    Delay relative to video : -80ms
    Stream size : 42.4 MiB (4%)
    Audio #2
    ID : 189 (0xBD)-129 (0x81)
    Format : AC-3
    Format/Info : Audio Coding 3
    Mode extension : CM (complete main)
    Format settings, Endianness : Big
    Muxing mode : DVD-Video
    Duration : 15mn 26s
    Bit rate mode : Constant
    Bit rate : 384 Kbps
    Channel(s) : 6 channels
    Channel positions : Front: L C R, Side: L R, LFE
    Sampling rate : 48.0 KHz
    Bit depth : 16 bits
    Compression mode : Lossy
    Delay relative to video : -80ms
    Stream size : 42.4 MiB (4%)
    Audio #3
    ID : 189 (0xBD)-132 (0x84)
    Format : AC-3
    Format/Info : Audio Coding 3
    Mode extension : CM (complete main)
    Format settings, Endianness : Big
    Muxing mode : DVD-Video
    Duration : 15mn 26s
    Bit rate mode : Constant
    Bit rate : 192 Kbps
    Channel(s) : 2 channels
    Channel positions : Front: L R
    Sampling rate : 48.0 KHz
    Bit depth : 16 bits
    Compression mode : Lossy
    Delay relative to video : -80ms
    Stream size : 21.2 MiB (2%)
    Audio #4
    ID : 189 (0xBD)-133 (0x85)
    Format : AC-3
    Format/Info : Audio Coding 3
    Mode extension : CM (complete main)
    Format settings, Endianness : Big
    Muxing mode : DVD-Video
    Duration : 15mn 26s
    Bit rate mode : Constant
    Bit rate : 192 Kbps
    Channel(s) : 2 channels
    Channel positions : Front: L R
    Sampling rate : 48.0 KHz
    Bit depth : 16 bits
    Compression mode : Lossy
    Delay relative to video : -80ms
    Stream size : 21.2 MiB (2%)
    Audio #5
    ID : 189 (0xBD)-138 (0x8A)
    Format : DTS
    Format/Info : Digital Theater Systems
    Mode : 16
    Format settings, Endianness : Big
    Muxing mode : DVD-Video
    Duration : 15mn 26s
    Bit rate mode : Constant
    Bit rate : 755 Kbps
    Channel(s) : 6 channels
    Channel positions : Front: L C R, Side: L R, LFE
    Sampling rate : 48.0 KHz
    Bit depth : 24 bits
    Compression mode : Lossy
    Delay relative to video : -80ms
    Stream size : 83.4 MiB (8%)
    Audio #6
    ID : 189 (0xBD)-139 (0x8B)
    Format : DTS
    Format/Info : Digital Theater Systems
    Mode : 16
    Format settings, Endianness : Big
    Muxing mode : DVD-Video
    Duration : 15mn 26s
    Bit rate mode : Constant
    Bit rate : 755 Kbps
    Channel(s) : 6 channels
    Channel positions : Front: L C R, Side: L R, LFE
    Sampling rate : 48.0 KHz
    Bit depth : 24 bits
    Compression mode : Lossy
    Delay relative to video : -80ms
    Stream size : 83.4 MiB (8%)
    Text #1
    ID : 189 (0xBD)-32 (0x20)
    Format : RLE
    Format/Info : Run-length encoding
    Muxing mode : DVD-Video
    Text #2
    ID : 189 (0xBD)-33 (0x21)
    Format : RLE
    Format/Info : Run-length encoding
    Muxing mode : DVD-Video
    Text #3
    ID : 189 (0xBD)-34 (0x22)
    Format : RLE
    Format/Info : Run-length encoding
    Muxing mode : DVD-Video
    Menu
    Скриншоты


    Залил: carisha

    Онлайн видео Сочувствие госпоже Месть


    Размер скачиваемого торрента: 7.43 GB (7973036032 Bytes)

    Сочувствие госпоже Месть/Chinjeolhan geumjassi (2005) DVD9 | D
    загрузка...
    Рейтинг →
     (голосов: 1, оценка 4/5, голосовать можно 1 раз )

    Другие торренты по теме:

  • Госпожа Месть / Сочувствие госпоже Месть / Chinjeolhan geumjassi / Lady Vengeance (2005) HDRip от Scarabey | P2 скачать торрент бесплатно
  • Сочувствие госпоже Месть / Chinjeolhan geumjassi (2005) BDRip-AVC | iPad | P скачать через торрент бесплатно
  • Сочувствие госпоже Месть / Chinjeolhan geumjassi (Lady Vengeance) / 2005 / ДБ, ПД, АП (Сербин) / BDRip (1080p) скачать торрент бесплатно


    • Комментарии (0):

      Информация

      Информация

        Посетители, находящиеся в группе Гости, не могут оставлять комментарии в данной новости.

        ↓ Меню



        ↓ Опрос

        А Вы добавили сайт в закладки?
        Да
        Не


        Top 10 за неделю (Фильмы)