.
Авторизация | Регистрация




Зной / Swelter (2014) DVD9 | P, P2, A скачать торрент бесплатно

Опубликовал: Админ | Дата: 8-04-2015, 23:00 | Просмотров: 224


Детально о кино
Русское название:Зной
Русское название в мировом прокате:Swelter
Создали в:2014
Категория жанра:Боевик, триллер, драма
Главный режиссер:Кит Пармер

Актеры
Ленни Джеймс, Грант Боулер, Каталина Сандино Морено, Альфред Молина, Джош Хендерсон, Жан-Клод Ван Дамм, Минди Робинсон, Фрея Тингли, Брэд Картер, Эбби Миллер

Сюжет фильма
История о четырех сбежавших заключенных, которые прибывают в пыльный, маленький городок Калифорнии, где стоит невыносимая жара. Беглецы ищут пятого сбежавшего, который скрылся с $10 миллионами наличными.

Время просмотра:01:39:40
Перевод текста:Профессиональный многоголосый, профессиональный двухголосый, авторский (Есарев)
Файл
Кодек для видео:MPEG-2
Качество фильма:DVD-9
Информация о видео:MPEG2, NTSC 16:9 (720x480@853x480) VBR, 23,976 кадра/сек
Информация о звуке:Русский/Английский/Немецкий DD 5.1 (384 Kbps), Русский 2.0 (192 Kbps)
Меню
DVDInfo
Title:
Size: 5.34 Gb ( 5 603 210 KBytes ) - DVD-9
Enabled regions: 1, 2, 3, 4, 5, 6, 7, 8
VTS_01 :
Play Length: 01:39:40
Video: NTSC 16:9 (720x480) VBR, Auto PanScan
Audio:
Russian (Dolby AC3, 2 ch)
Russian (Dolby AC3, 6 ch)
Russian (Dolby AC3, 6 ch)
English (Dolby AC3, 6 ch)
Deutsch (Dolby AC3, 6 ch)
Menu Video:
NTSC 4:3 (704x480) VBR
Menu English Language Unit :
Root Menu
MediaInfo
Общее
Полное имя : D:ААА2ЗНОЙVIDEO_TSVTS_01_1.VOB
Формат : MPEG-PS
Размер файла : 1000 Мбайт
Продолжительность : 16 м.
Режим общего битрейта : Переменный
Общий поток : 8564 Кбит/сек
Видео
Идентификатор : 224 (0xE0)
Формат : MPEG Video
Версия формата : Version 2
Профиль формата : Main@Main
Параметр BVOP формата : Да
Параметр матрицы формата : По умолчанию
Параметр GOP формата : M=3, N=12
Продолжительность : 16 м.
Вид битрейта : Переменный
Битрейт : 6666 Кбит/сек
Максимальный битрейт : 8088 Кбит/сек
Ширина : 720 пикселей
Высота : 480 пикселей
Соотношение сторон : 16:9
Частота кадров : 23,976 кадра/сек
Стандарт вещания : NTSC
Цветовое пространство : YUV
Субдискретизация насыщенности : 4:2:0
Битовая глубина : 8 бит
Тип развёртки : Прогрессивная
Порядок развёртки : 2:3 Pulldown
Метод сжатия : С потерями
Бит/(Пиксели*Кадры) : 0.804
TimeCode_FirstFrame : 00:00:00;00
TimeCode_Source : Group of pictures t_head
Размер потока : 779 Мбайт (78%)
Аудио #1
Идентификатор : 189 (0xBD)-128 (0x80)
Формат : AC-3
Формат/Информация : Audio Coding 3
Профиль формата : Dolby Digital
Расширение режима : CM (complete main)
Параметр Endianness формата : Big
Режим смешивания : DVD-Video
Продолжительность : 16 м.
Вид битрейта : Постоянный
Битрейт : 192 Кбит/сек
Каналы : 2 канала
Расположение каналов : Front: L R
Частота : 48,0 КГц
Битовая глубина : 16 бит
Метод сжатия : С потерями
Размер потока : 22,4 Мбайт (2%)
Аудио #2
Идентификатор : 189 (0xBD)-129 (0x81)
Формат : AC-3
Формат/Информация : Audio Coding 3
Расширение режима : CM (complete main)
Параметр Endianness формата : Big
Режим смешивания : DVD-Video
Продолжительность : 16 м.
Вид битрейта : Постоянный
Битрейт : 384 Кбит/сек
Каналы : 6 каналов
Расположение каналов : Front: L C R, Side: L R, LFE
Частота : 48,0 КГц
Битовая глубина : 16 бит
Метод сжатия : С потерями
Размер потока : 44,9 Мбайт (4%)
Аудио #3
Идентификатор : 189 (0xBD)-130 (0x82)
Формат : AC-3
Формат/Информация : Audio Coding 3
Расширение режима : CM (complete main)
Параметр Endianness формата : Big
Режим смешивания : DVD-Video
Продолжительность : 16 м.
Вид битрейта : Постоянный
Битрейт : 384 Кбит/сек
Каналы : 6 каналов
Расположение каналов : Front: L C R, Side: L R, LFE
Частота : 48,0 КГц
Битовая глубина : 16 бит
Метод сжатия : С потерями
Размер потока : 44,9 Мбайт (4%)
Аудио #4
Идентификатор : 189 (0xBD)-131 (0x83)
Формат : AC-3
Формат/Информация : Audio Coding 3
Расширение режима : CM (complete main)
Параметр Endianness формата : Big
Режим смешивания : DVD-Video
Продолжительность : 16 м.
Вид битрейта : Постоянный
Битрейт : 384 Кбит/сек
Каналы : 6 каналов
Расположение каналов : Front: L C R, Side: L R, LFE
Частота : 48,0 КГц
Битовая глубина : 16 бит
Метод сжатия : С потерями
Размер потока : 44,9 Мбайт (4%)
Аудио #5
Идентификатор : 189 (0xBD)-132 (0x84)
Формат : AC-3
Формат/Информация : Audio Coding 3
Расширение режима : CM (complete main)
Параметр Endianness формата : Big
Режим смешивания : DVD-Video
Продолжительность : 16 м.
Вид битрейта : Постоянный
Битрейт : 384 Кбит/сек
Каналы : 6 каналов
Расположение каналов : Front: L C R, Side: L R, LFE
Частота : 48,0 КГц
Битовая глубина : 16 бит
Метод сжатия : С потерями
Размер потока : 44,9 Мбайт (4%)
Меню

Скриншоты

Релиз:
Залил: YArl
Размер скачиваемого торрента: 5.34 GB (5737687040 Bytes)

Зной/Swelter (2014) DVD9 | P, P2, A
загрузка...
Рейтинг →
 (голосов: 1, оценка 4/5, голосовать можно 1 раз )

Другие торренты по теме:



    Комментарии (0):

    Информация

    Информация

      Посетители, находящиеся в группе Гости, не могут оставлять комментарии в данной новости.

      ↓ Меню



      ↓ Опрос

      А Вы добавили сайт в закладки?
      Да
      Не


      Top 10 за неделю (Фильмы)