.
Авторизация | Регистрация
» » Кат Бэнк / Cut Bank (2014) WEB-DL 720p | L1 скачать торрент бесплатно




    Кат Бэнк / Cut Bank (2014) WEB-DL 720p | L1 скачать торрент бесплатно

    Опубликовал: Админ | Дата: 10-04-2015, 15:00 | Просмотров: 363



    Детально о кино
    Русское название: Кат Бэнк
    Русское название в мировом прокате: Cut Bank
    Создали в: 2014
    Категория жанра: триллер
    Главный режиссер: Мэтт Шекман

    Актеры
    Билли Боб Торнтон, Лиам Хемсворт, Тереза Палмер, Джон Малкович, Майкл Стулбарг, Брюс Дерн, Оливер Платт, Соня Саломяа, Эйден Лонгуорт, Пейтон Кеннеди

    Сюжет фильма
    Дуэйн МакЛарен живет в городе Кат Бэнк, штат Монтана, работает в автомастерской, но в школе был звездой футбола. Поскольку городок буквально застрял во времени, Дуэйну очень хочется вырваться из него. Он предпринимает все возможное, чтобы покинуть Кат Бэнк, тем самым запуская череду событий, которые изменят не только его жизнь, но и сам город.


    Снималось в: США/Kilburn Media
    Время просмотра: 01:33:18
    Тип перевода:Любительское (одноголосное) Shoegaze
    Файл
    Тип видео: MKV
    Качество фильма: WEB-DL 720p
    Информация о видео: 3811 kb/s, 1280x528
    Информация о звуке: Russian: AC3, 384 kb/s (2 ch)/English: AC3, 384 kb/s (6 ch)
    Субтитры: English
    MI

    Format : Matroska
    Format version : Version 4/Version 2
    File size : 3.05 GiB
    Duration : 1h 33mn
    Overall bit rate : 4 672 Kbps
    Encoded date : UTC 2015-04-10 10:13:22
    Writing application : mkvmerge v6.1.0 (;Old Devil;) built on Mar 4 2013 09:10:42
    Writing library : libebml v1.3.0 + libmatroska v1.4.0
    Video
    ID : 1
    Format : AVC
    Format/Info : Advanced Video Codec
    Format profile : Main@L3.1
    Format settings, CABAC : No
    Format settings, ReFrames : 2 frames
    Codec ID : V_MPEG4/ISO/AVC
    Duration : 1h 33mn
    Bit rate : 3 811 Kbps
    Width : 1 280 pixels
    Height : 528 pixels
    Display aspect ratio : 2.40:1
    Frame rate : 23.976 fps
    Color space : YUV
    Chroma subsampling : 4:2:0
    Bit depth : 8 bits
    Scan type : Progressive
    Bits/(Pixel*Frame) : 0.235
    Stream size : 2.48 GiB (82%)
    Language : English
    Default : Yes
    Forced : No
    Color primaries : BT.709-5, BT.1361, IEC 61966-2-4, SMPTE RP177
    Transfer characteristics : BT.709-5, BT.1361
    Matrix coefficients : BT.709-5, BT.1361, IEC 61966-2-4 709, SMPTE RP177
    Audio #1
    ID : 2
    Format : AC-3
    Format/Info : Audio Coding 3
    Mode extension : CM (complete main)
    Format settings, Endianness : Big
    Codec ID : A_AC3
    Duration : 1h 33mn
    Bit rate mode : Constant
    Bit rate : 384 Kbps
    Channel(s) : 2 channels
    Channel positions : Front: L R
    Sampling rate : 44.1 KHz
    Bit depth : 16 bits
    Compression mode : Lossy
    Stream size : 256 MiB (8%)
    Language : Russian
    Default : Yes
    Forced : No
    Audio #2
    ID : 3
    Format : AC-3
    Format/Info : Audio Coding 3
    Mode extension : CM (complete main)
    Format settings, Endianness : Big
    Codec ID : A_AC3
    Duration : 1h 33mn
    Bit rate mode : Constant
    Bit rate : 384 Kbps
    Channel(s) : 6 channels
    Channel positions : Front: L C R, Side: L R, LFE
    Sampling rate : 48.0 KHz
    Bit depth : 16 bits
    Compression mode : Lossy
    Stream size : 256 MiB (8%)
    Language : English
    Default : No
    Forced : No
    Text
    ID : 4
    Format : UTF-8
    Codec ID : S_TEXT/UTF8
    Codec ID/Info : UTF-8 Plain Text
    Language : English
    Default : No
    Forced : No
    Menu
    00:00:00.000 : en:1
    00:10:49.000 : en:2
    00:21:12.000 : en:3
    00:31:25.000 : en:4
    00:41:04.000 : en:5
    00:52:28.000 : en:6
    01:02:01.000 : en:7
    01:11:20.000 : en:8
    01:28:21.000 : en:9
    Скриншоты





    Онлайн видео Кат Бэнк


    Размер скачиваемого торрента: 3.05 GB (3269741000 Bytes)

    Кат Бэнк/Cut Bank (2014) WEB-DL 720p | L1
    загрузка...
    Рейтинг →
     (голосов: 1, оценка 5/5, голосовать можно 1 раз )

    Другие торренты по теме:

  • Кат Бэнк / Cut Bank (2014) WEB-DLRip от ColdFilm | L2 скачать торрент бесплатно


    • Комментарии (0):

      Информация

      Информация

        Посетители, находящиеся в группе Гости, не могут оставлять комментарии в данной новости.

        ↓ Меню



        ↓ Опрос

        А Вы добавили сайт в закладки?
        Да
        Не


        Top 10 за неделю (Фильмы)