.
Авторизация | Регистрация
Хочешь лучшие торренты? Добавь свой email!
Добавить
» » Заложница 3 / Taken 3 (2014) BDRip 720p | KinoGadget | iPad торрент скачать бесплатно




    Заложница 3 / Taken 3 (2014) BDRip 720p | KinoGadget | iPad торрент скачать бесплатно

    Опубликовал: Админ | Дата: 12-04-2015, 23:00 | Просмотров: 325


    Создали в: 2014
    Снималось в: Франция
    Категория жанра: боевик, триллер
    Время просмотра: 01:48:57
    Перевод текста: Дублированный
    Главный режиссер: Оливье Мегатон

    Актеры
    Лиам Нисон, Мэгги Грэйс, Форест Уитакер, Сэм Спруэлл, Фамке Янссен, Дугрей Скотт, Дон Харви, Дилан Бруно, Лиленд Орсер, Дэвид Уоршофски, Джон Грайз, Джонни Уэстон, Эндрю Борба
    Описание: Жизнь бывшего правительственного агента Брайана Миллса рушится, когда его обвиняют в убийстве, которого он не совершал. Преследуемый опытным инспектором полиции, Миллс пытается отследить настоящего убийцу…

    Информация о видео кодек:MPEG-4 AVC
    Качество фильма:BDRip 720p
    Параметры Видео:1280x544, 23.976 fps; ~2 578 kbps avg
    Параметры Звука:44.1 KHz, AAC, ~150.00 kbps avg, 2ch
    Тип видео:mp4
    Автор рипа:
    Релиз-группа:

    Meta Tags


    MI
    General
    Complete name : E:Zalozhnica_3.2014.D.BDRip.720p_KinoGadget.mp4
    Format : MPEG-4
    Format profile : Base Media
    Codec ID : isom
    File size : 2.08 GiB
    Duration : 1h 48mn
    Overall bit rate mode : Variable
    Overall bit rate : 2 735 Kbps
    Movie name : Заложница 3
    Performer : Оливье Мегатон
    Genre : Action, Thriller
    ContentType : Short Film
    Recorded date : 2014
    Encoded date : UTC 2015-04-12 16:22:30
    Tagged date : UTC 2015-04-12 16:35:46
    Cover : Yes
    ContentRating : mpaa|PG-13|300|
    LongDeion : Жизнь бывшего правительственного агента Брайана Миллса рушится, когда его обвиняют в убийстве, которого он не совершал. Преследуемый опытным инспектором полиции, Миллс пытается отследить настоящего убийцу…
    HDVideo : Yes
    Video
    ID : 1
    Format : AVC
    Format/Info : Advanced Video Codec
    Format profile : High@L4.1
    Format settings, CABAC : Yes
    Format settings, ReFrames : 11 frames
    Codec ID : avc1
    Codec ID/Info : Advanced Video Coding
    Duration : 1h 48mn
    Bit rate : 2 578 Kbps
    Maximum bit rate : 14.2 Mbps
    Width : 1 280 pixels
    Height : 544 pixels
    Display aspect ratio : 2.35:1
    Frame rate mode : Constant
    Frame rate : 23.976 fps
    Color space : YUV
    Chroma subsampling : 4:2:0
    Bit depth : 8 bits
    Scan type : Progressive
    Bits/(Pixel*Frame) : 0.154
    Stream size : 1.96 GiB (94%)
    Writing library : x264 core 146 r2538 121396c
    Encoding settings : cabac=1/ref=11/deblock=1:-1:-1/analyse=0x3:0x133/me=umh/subme=9/psy=1/psy_rd=1.00:0.20/mixed_ref=1/me_range=24/chroma_me=1/trellis=2/8x8dct=1/cqm=0/deadzone=21,11/fast_pskip=1/chroma_qp_offset=-3/threads=3/lookahead_threads=1/sliced_threads=0/nr=0/decimate=1/interlaced=0/bluray_compat=0/constrained_intra=0/bframes=4/b_pyramid=2/b_adapt=2/b_bias=0/direct=3/weightb=1/open_gop=0/weightp=2/keyint=240/keyint_min=23/scenecut=40/intra_refresh=0/rc_lookahead=60/rc=crf/mbtree=1/crf=21.0/qcomp=0.60/qpmin=0/qpmax=69/qpstep=4/ip_ratio=1.40/aq=1:0.50
    Encoded date : UTC 2015-04-12 15:04:23
    Tagged date : UTC 2015-04-12 16:24:09
    Audio
    ID : 2
    Format : AAC
    Format/Info : Advanced Audio Codec
    Format profile : LC
    Codec ID : 40
    Duration : 1h 48mn
    Bit rate mode : Variable
    Bit rate : 150 Kbps
    Maximum bit rate : 229 Kbps
    Channel count : 2 channels
    Channel positions : Front: L R
    Sampling rate : 44.1 KHz
    Compression mode : Lossy
    Stream size : 117 MiB (5%)
    Language : Russian
    Encoded date : UTC 2015-04-12 16:23:59
    Tagged date : UTC 2015-04-12 16:24:09

    Скриншоты


    Залил: KinoGadget

    Онлайн видео Заложница 3


    Размер скачиваемого торрента: 2.08 GB (2234826936 Bytes)

    Заложница 3/Taken 3 (2014) BDRip 720p | KinoGadget | iPad
    загрузка...
    Рейтинг →
     (голосов: 1, оценка 3/5, голосовать можно 1 раз )

    Другие торренты по теме:

  • Заложница 3 / Taken 3 (2015) HD 1080p | Трейлер скачать через торрент бесплатно
  • Заложница 3 / Taken 3 (2014) WEB-DL 1080p | Звук с CamRip скачать через торрент бесплатно
  • Заложница 3 / Taken 3 (2014) HDTVRip от Twi7ter | Чистый звук скачать через торрент бесплатно
  • Заложница 3 / Taken 3 (2014) HDRip | Чистый звук
  • Заложница 3 / Taken 3 (2014) BDRip 720p | Чистый звук
  • Заложница 3 / Taken 3 (2014) BDRip-AVC | Чистый звук
  • Заложница 3 (Расширенная версия) / Taken 3 (Unrated version) / 2014 / ДБ (Line) / HDRip
  • Заложница 3 / Taken 3 / 2014 / ДБ (Line), СТ / Blu-Ray Remux (1080p)


    • Комментарии (0):

      Информация

      Информация

        Посетители, находящиеся в группе Гости, не могут оставлять комментарии в данной новости.

        ↓ Меню



        ↓ Опрос

        А Вы добавили сайт в закладки?
        Да
        Не


        Top 10 за месяц (Фильмы)