.
Авторизация | Регистрация
» » Тяжелые деньги / Трудные деньги / Run for the Money / Hard Cash (2002) WEB-DL 720p скачать торрент бесплатно




    Тяжелые деньги / Трудные деньги / Run for the Money / Hard Cash (2002) WEB-DL 720p скачать торрент бесплатно

    Опубликовал: Админ | Дата: 13-04-2015, 14:00 | Просмотров: 168


    Тяжелые деньги
    | Run for the Money |

    Детально о кино
    Русское название:Тяжелые деньги
    Русское название в мировом прокате:Run for the Money
    Создали в:2002
    Категория жанра:боевик, триллер, криминал
    Главный режиссер:Предраг Антониевич

    Актеры
    Кристиан Слэйтер, Вэл Килмер, Сара Доунинг, Винсент Лареска, Бальтазар Гетти, Букем Вудбайн, Дэрил Ханна, Родни Роулэнд, Холлистон Коулмэн, Питер Вудворд

    Сюжет фильма

    Отсидев положенный срок, на свободу выходит знаменитый вор Томас Тэйлор, которому нужно размяться и подзаработать после вынужденного отдыха. Вместе со своими надежными напарниками он грабит букмекерскую контору, но вскоре радость сменяется досадой – деньги меченые, а на пороге уже стоит предприимчивый агент ФБР Корнэлл, шантажом заставляющий бесстрашную команду ограбить для него инкассаторский фургон. Тэйлор соглашается провернуть эту рискованную операцию и разрабатывает гениальный план, который не может сорваться, ведь на кону стоит не только его свобода, но и жизнь его дочки, ставшей заложницей жестокого Корнэлла.

    Снималось в:США, Аруба
    Киностудия:Canyon Productions, City Heat Productions, DEJ Productions, Emmett/Furla/Nittolo Films, Millennium Films, Nu Image Films
    Время просмотра:01:38:23
    Перевод текста:Профессиональный многоголосый
    Файл
    Кодек для видео:h.264
    Качество фильма:WEB-DL 720p
    Информация о видео:3955 Кбит/с, 1280x718, 24.000 кадр/с
    Информация о звуке:
    • №1: Русский (AC3, 6 ch, 448 Кбит/с) Профессиональный многоголосый R5
    • №2: Английский (AC3, 6 ch, 448 Кбит/с)
    Субтитры:Русские, английские
    MediaInfo

    Полное имя : Run.for.the.Money.2002.h264.WEB-DL.720p.Rus.Eng.mkv
    Формат : Matroska
    Версия формата : Version 2
    Размер файла : 3,40 Гбайт
    Продолжительность : 1 ч. 38 м.
    Общий поток : 4950 Кбит/сек
    Название фильма : Тяжелые деньги | Run for the Money 2002 -= WEB-DL 720p =-
    Дата кодирования : UTC 2015-04-13 09:28:20
    Программа кодирования : mkvmerge v6.6.0 (;The Edge Of The In Between;) built on Dec 1 2013 17:55:00
    Библиотека кодирования : libebml v1.3.0 + libmatroska v1.4.1
    Видео
    Идентификатор : 1
    Формат : AVC
    Формат/Информация : Advanced Video Codec
    Профиль формата : High@L3.1
    Параметр CABAC формата : Нет
    Параметр ReFrames формата : 2 кадра
    Идентификатор кодека : V_MPEG4/ISO/AVC
    Продолжительность : 1 ч. 38 м.
    Битрейт : 3956 Кбит/сек
    Ширина : 1280 пикселей
    Высота : 718 пикселей
    Соотношение сторон : 16:9
    Режим частоты кадров : Постоянный
    Частота кадров : 24,000 кадра/сек
    Цветовое пространство : YUV
    Субдискретизация насыщенности : 4:2:0
    Битовая глубина : 8 бит
    Тип развёртки : Прогрессивная
    Бит/(Пиксели*Кадры) : 0.179
    Размер потока : 2,72 Гбайт (80%)
    Заголовок : Itunes rip by GileraGFR
    Язык : English
    Default : Да
    Forced : Да
    Основные цвета : BT.709
    Характеристики трансфера : BT.709
    Коэффициенты матрицы : BT.709
    Аудио #1
    Идентификатор : 2
    Формат : AC-3
    Формат/Информация : Audio Coding 3
    Расширение режима : CM (complete main)
    Параметр Endianness формата : Big
    Идентификатор кодека : A_AC3
    Продолжительность : 1 ч. 38 м.
    Вид битрейта : Постоянный
    Битрейт : 448 Кбит/сек
    Каналы : 6 каналов
    Расположение каналов : Front: L C R, Side: L R, LFE
    Частота : 48,0 КГц
    Битовая глубина : 16 бит
    Метод сжатия : С потерями
    Размер потока : 315 Мбайт (9%)
    Заголовок : Многоголосый R5 AC3 5.1 @ 448 kbps
    Язык : Russian
    Default : Да
    Forced : Да
    Аудио #2
    Идентификатор : 3
    Формат : AC-3
    Формат/Информация : Audio Coding 3
    Расширение режима : CM (complete main)
    Параметр Endianness формата : Big
    Идентификатор кодека : A_AC3
    Продолжительность : 1 ч. 38 м.
    Вид битрейта : Постоянный
    Битрейт : 448 Кбит/сек
    Каналы : 6 каналов
    Расположение каналов : Front: L C R, Side: L R, LFE
    Частота : 48,0 КГц
    Битовая глубина : 16 бит
    Метод сжатия : С потерями
    Размер потока : 315 Мбайт (9%)
    Заголовок : AC3 5.1 @ 448 kbps
    Язык : English
    Default : Нет
    Forced : Нет
    Текст #1
    Идентификатор : 4
    Формат : UTF-8
    Идентификатор кодека : S_TEXT/UTF8
    Идентификатор кодека/Информация : UTF-8 Plain Text
    Язык : Russian
    Default : Нет
    Forced : Нет
    Текст #2
    Идентификатор : 5
    Формат : UTF-8
    Идентификатор кодека : S_TEXT/UTF8
    Идентификатор кодека/Информация : UTF-8 Plain Text
    Язык : English
    Default : Нет
    Forced : Нет
    Скриншоты



    Залил: 0ptimus

    Онлайн видео Тяжелые деньги


    Размер скачиваемого торрента: 3.40 GB (3652527154 Bytes)

    Тяжелые деньги/Трудные деньги/Run for the Money/Hard Cash (2002) WEB-DL 720p
    загрузка...
    Рейтинг →
     (голосов: 1, оценка 3/5, голосовать можно 1 раз )

    Другие торренты по теме:



      Комментарии (0):

      Информация

      Информация

        Посетители, находящиеся в группе Гости, не могут оставлять комментарии в данной новости.

        ↓ Меню



        ↓ Опрос

        А Вы добавили сайт в закладки?
        Да
        Не


        Top 10 за неделю (Фильмы)