.
Авторизация | Регистрация
» » Человек №217 (1944) DVDRip от New-Team скачать торрент бесплатно




    Человек №217 (1944) DVDRip от New-Team скачать торрент бесплатно

    Опубликовал: Админ | Дата: 14-04-2015, 09:03 | Просмотров: 219


    Снималось в: СССР
    Создали в: Мосфильм, Студия Ташкент
    Категория жанра: драма
    Создали в: 1944
    Время просмотра: 01:39:33
    Перевод текста:Не требуется
    Субтитры подготовлены: нет
    Оригинальная аудиодорожка: русский
    Главный режиссер: Михаил Ромм

    Актеры

    Владимир Балашов, Татьяна Барышева, Генрих Грайф, Елена Кузьмина, Анна Лисянская, Григорий Михайлов, Лидия Сухаревская, Павел Суханов, Василий Зайчиков, Владимир Владиславский...
    Описание:
    В немецкий городок прибывает очередная партия угнанных фашистами советских людей. Человек N 217 — русская девушка Таня — продана бакалейщику, у которого дворником работает советский ученый-математик. Смерть ученого, замученного хозяевами и эсэсовцами, вызывает в девушке твердую решимость мстить за погибшего и бороться за свою свободу…



    Источник:DVD5 R5
    Качество фильма видео:DVDRip
    Тип видео видео: AVI
    Информация о видео: 688x512 (4:3), 25 fps, XviD ~ 1898 kbps avg, 0.216 bit/pixel
    Информация о звуке: 48 kHz, Dolby Digital AC3 2.0, 192 kbps
    Раздача от:
    MediaInfo

    Общее
    Полное имя : Chelovek.№217.1944.DVDRip_New-team_by_AVP_Studio.avi
    Формат : AVI
    Формат/Информация : Audio Video Interleave
    Размер файла : 1,46 Гбайт
    Продолжительность : 1 ч. 39 м.
    Общий поток : 2099 Кбит/сек
    Программа кодирования : VirtualDubModRus 1.5.10.2 (build 2542/release)
    Библиотека кодирования : VirtualDubMod build 2542/release
    Видео
    Идентификатор : 0
    Формат : MPEG-4 Visual
    Профиль формата : Advanced Simple@L5
    Параметр BVOP формата : 1
    Параметр QPel формата : Нет
    Параметр GMC формата : Без точки перехода
    Параметр матрицы формата : Выборочная
    Идентификатор кодека : XVID
    Идентификатор кодека/Подсказка : XviD
    Продолжительность : 1 ч. 39 м.
    Битрейт : 1898 Кбит/сек
    Ширина : 688 пикселей
    Высота : 512 пикселей
    Соотношение сторон : 4:3
    Частота кадров : 25,000 кадров/сек
    Цветовое пространство : YUV
    Субдискретизация насыщенности : 4:2:0
    Битовая глубина : 8 бит
    Тип развёртки : Прогрессивная
    Метод сжатия : С потерями
    Бит/(Пиксели*Кадры) : 0.216
    Размер потока : 1,32 Гбайт (90%)
    Библиотека кодирования : XviD 73
    Аудио
    Идентификатор : 1
    Формат : AC-3
    Формат/Информация : Audio Coding 3
    Расширение режима : CM (complete main)
    Параметр Endianness формата : Big
    Идентификатор кодека : 2000
    Продолжительность : 1 ч. 39 м.
    Вид битрейта : Постоянный
    Битрейт : 192 Кбит/сек
    Каналы : 2 канала
    Расположение каналов : Front: L R
    Частота : 48,0 КГц
    Битовая глубина : 16 бит
    Метод сжатия : С потерями
    Размер потока : 137 Мбайт (9%)
    Выравнивание : Разделение по промежуткам
    Продолжительность промежутка : 40 мс. (1,00 видеокадр)
    Время предзагрузки промежутка : 500 мс

    Скриншоты



    Залил: AVPStudio

    Онлайн видео Человек №217 (1944) DVDRip от New


    Размер скачиваемого торрента: 1.46 GB (1567727616 Bytes)

    Человек №217 (1944) DVDRip от New-Team
    загрузка...
    Рейтинг →
     (голосов: 1, оценка 5/5, голосовать можно 1 раз )

    Другие торренты по теме:



      Комментарии (0):

      Информация

      Информация

        Посетители, находящиеся в группе Гости, не могут оставлять комментарии в данной новости.

        ↓ Меню



        ↓ Опрос

        А Вы добавили сайт в закладки?
        Да
        Не


        Top 10 за неделю (Фильмы)