.
Авторизация | Регистрация




Муха / The Fly (1986) DVD9 | P скачать торрент бесплатно

Опубликовал: Админ | Дата: 22-04-2015, 10:01 | Просмотров: 144


Детально о кино
Русское название:Муха
Русское название в мировом прокате:The Fly
Создали в:1986
Категория жанра:ужасы, фантастика, драма
Главный режиссер:Дэвид Кроненберг

Актеры
Джефф Голдблюм, Джина Дэвис, Джон Гец, Джой Баушел, Лесли Карлсон, Джордж Чувало, Майкл Коупмен, Дэвид Кроненберг, Кэрол Лазар, Шон Хьюит

Сюжет фильма

Талантливый и немного эксцентричный ученый Сет Брандл изучает проблемы телепортации. Начав с перемещения в пространстве неодушевленных предметов, гений от науки решает поэкспериментировать с живыми существами.
Воодушевленный удачным результатом опыта по телепортации обезьяны, он сам хочет стать объектом эксперимента. Но по воле случая в стерильную камеру залетает муха. Это маленькое насекомое навсегда меняет жизнь Сета — он становится другим. Другим существом…


лицам до 17 лет обязательно присутствие взрослого
Снималось в:США, Великобритания, Канада
Киностудия:Brooksfilms, SLM Production Group
Время просмотра:92 мин./01:32
Перевод текста:профессиональный (многоголосый, закадровый)
Файл
Кодек для видео:MPEG2
Качество фильма:DVD9Двадцатый Век Фокс СНГ
Информация о видео:PAL 16:9 (720x576@1024x576) VBR 6005 Kbps, 25.000 fps
Информация о звуке 1:DTS 6 ch, 48.0 KHz, 768 Kbps(русский)
Информация о звуке 2:Dolby AC3, 6 ch, 48.0 KHz, 384 Kbps(русский)
Информация о звуке 3:Dolby AC3, 2 ch, 48.0 KHz, 192 Kbps(английский)
Субтитры:русские, украинские, английские
MediaInfo
General
Complete name : D:The Fly DVD9VIDEO_TSVTS_01_1.VOB
Format : MPEG-PS
File size : 1 024 MiB
Duration : 19mn 7s
Overall bit rate mode : Variable
Overall bit rate : 7 484 Kbps
Video
ID : 224 (0xE0)
Format : MPEG Video
Format version : Version 2
Format profile : Main@Main
Format settings, BVOP : Yes
Format settings, Matrix : Custom
Format settings, GOP : M=3, N=15
Duration : 19mn 7s
Bit rate mode : Variable
Bit rate : 6 005 Kbps
Maximum bit rate : 7 500 Kbps
Width : 720 pixels
Height : 576 pixels
Display aspect ratio : 16:9
Frame rate : 25.000 fps
Standard : PAL
Color space : YUV
Chroma subsampling : 4:2:0
Bit depth : 8 bits
Scan type : Progressive
Scan order : Top Field First
Compression mode : Lossy
Bits/(Pixel*Frame) : 0.579
Time code of first frame : 00:59:58:06
Time code source : Group of pictures t_head
GOP, Open/Closed : Open
GOP, Open/Closed of first f : Closed
Stream size : 822 MiB (80%)
Audio #1
ID : 189 (0xBD)-128 (0x80)
Format : AC-3
Format/Info : Audio Coding 3
Mode extension : CM (complete main)
Format settings, Endianness : Big
Muxing mode : DVD-Video
Duration : 19mn 7s
Bit rate mode : Constant
Bit rate : 192 Kbps
Channel(s) : 2 channels
Channel positions : Front: L R
Sampling rate : 48.0 KHz
Compression mode : Lossy
Stream size : 26.3 MiB (3%)
Audio #2
ID : 189 (0xBD)-129 (0x81)
Format : AC-3
Format/Info : Audio Coding 3
Mode extension : CM (complete main)
Format settings, Endianness : Big
Muxing mode : DVD-Video
Duration : 19mn 7s
Bit rate mode : Constant
Bit rate : 384 Kbps
Channel(s) : 6 channels
Channel positions : Front: L C R, Side: L R, LFE
Sampling rate : 48.0 KHz
Compression mode : Lossy
Stream size : 52.5 MiB (5%)
Audio #3
ID : 189 (0xBD)-138 (0x8A)
Format : DTS
Format/Info : Digital Theater Systems
Mode : 16
Format settings, Endianness : Big
Muxing mode : DVD-Video
Duration : 19mn 7s
Bit rate mode : Constant
Bit rate : 755 Kbps
Channel(s) : 6 channels
Channel positions : Front: L C R, Side: L R, LFE
Sampling rate : 48.0 KHz
Bit depth : 24 bits
Compression mode : Lossy
Stream size : 103 MiB (10%)
Text #1
ID : 189 (0xBD)-33 (0x21)
Format : RLE
Format/Info : Run-length encoding
Muxing mode : DVD-Video
Duration : 19mn 3s
Delay relative to video : 2s 440ms
Text #2
ID : 189 (0xBD)-34 (0x22)
Format : RLE
Format/Info : Run-length encoding
Muxing mode : DVD-Video
Duration : 19mn 3s
Delay relative to video : 2s 440ms
Text #3
ID : 189 (0xBD)-32 (0x20)
Format : RLE
Format/Info : Run-length encoding
Muxing mode : DVD-Video
Menu
Скриншоты


Залил: carisha
Размер скачиваемого торрента: 4.87 GB (5233297408 Bytes)

Муха/The Fly (1986) DVD9 | P
загрузка...
Рейтинг →
 (голосов: 1, оценка 4/5, голосовать можно 1 раз )

Другие торренты по теме:



    Комментарии (0):

    Информация

    Информация

      Посетители, находящиеся в группе Гости, не могут оставлять комментарии в данной новости.

      ↓ Меню



      ↓ Опрос

      А Вы добавили сайт в закладки?
      Да
      Не


      Top 10 за неделю (Фильмы)