.
Авторизация | Регистрация




Сыновья (1946) DVDRip от New-Team скачать торрент бесплатно

Опубликовал: Админ | Дата: 22-04-2015, 11:00 | Просмотров: 176


Снималось в: СССР
Создали в: Ленфильм, Рижская киностудия
Категория жанра: драма, военный
Создали в: 1946
Время просмотра: 01:16:24
Перевод текста:Не требуется
Субтитры подготовлены: нет
Оригинальная аудиодорожка: русский
Главный режиссер: Александр Иванов

Актеры

Олег Жаков, Лидия Смирнова, Николай Чиббиус, Василий Ванин, Анна Петухова, Василий Меркурьев, Лидия Сухаревская, Геннадий Мичурин, Виталий Полицеймако, Григорий Шпигель...
Описание:
В одном из районов оккупированной фашистами Латвии гитлеровцы арестовывают крестьянского парня Яниса. Первый побег завершается новым арестом. На этот раз его задерживает младший брат, ставший полицаем. После следующего побега жена Илга и дочь попадают в концлагерь. И теперь Янис готов на все, чтобы их спасти...



Источник:DVD5 R5
Качество фильма видео:DVDRip
Тип видео видео: AVI
Информация о видео: 672x496 (4:3), 25 fps, XviD ~ 1225 kbps avg, 0.147 bit/pixel
Информация о звуке: 48 kHz, MP3 2.0, 128 kbps
Раздача от:
MediaInfo

Общее
Полное имя : Synovya.1946.DVDRip_New-team_by_AVP_Studio.avi
Формат : AVI
Формат/Информация : Audio Video Interleave
Размер файла : 745 Мбайт
Продолжительность : 1 ч. 28 м.
Общий поток : 1175 Кбит/сек
Программа кодирования : VirtualDubModRus 1.5.10.2 (build 2542/release)
Библиотека кодирования : VirtualDubMod build 2542/release
Видео
Идентификатор : 0
Формат : MPEG-4 Visual
Профиль формата : Advanced Simple@L5
Параметр BVOP формата : 1
Параметр QPel формата : Нет
Параметр GMC формата : Без точки перехода
Параметр матрицы формата : Выборочная
Идентификатор кодека : XVID
Идентификатор кодека/Подсказка : XviD
Продолжительность : 1 ч. 28 м.
Битрейт : 1038 Кбит/сек
Ширина : 640 пикселей
Высота : 480 пикселей
Соотношение сторон : 4:3
Частота кадров : 25,000 кадров/сек
Цветовое пространство : YUV
Субдискретизация насыщенности : 4:2:0
Битовая глубина : 8 бит
Тип развёртки : Прогрессивная
Метод сжатия : С потерями
Бит/(Пиксели*Кадры) : 0.135
Размер потока : 658 Мбайт (88%)
Библиотека кодирования : XviD 73
Аудио
Идентификатор : 1
Формат : MPEG Audio
Версия формата : Version 1
Профиль формата : Layer 3
Идентификатор кодека : 55
Идентификатор кодека/Подсказка : MP3
Продолжительность : 1 ч. 28 м.
Вид битрейта : Постоянный
Битрейт : 128 Кбит/сек
Каналы : 2 канала
Частота : 48,0 КГц
Метод сжатия : С потерями
Размер потока : 81,1 Мбайт (11%)
Выравнивание : Соединение по промежуткам
Продолжительность промежутка : 40 мс. (1,00 видеокадр)
Время предзагрузки промежутка : 504 мс.
Библиотека кодирования : LAME3.99r
Залил: AVPStudio

Онлайн видео Сыновья (1946) DVDRip от New


Размер скачиваемого торрента: 745.02 MB (781207552 Bytes)


Сыновья (1946) DVDRip от New-Team
загрузка...
Рейтинг →
 (голосов: 1, оценка 5/5, голосовать можно 1 раз )

Другие торренты по теме:



    Комментарии (0):

    Информация

    Информация

      Посетители, находящиеся в группе Гости, не могут оставлять комментарии в данной новости.

      ↓ Меню



      ↓ Опрос

      А Вы добавили сайт в закладки?
      Да
      Не


      Top 10 за неделю (Фильмы)