.
Авторизация | Регистрация
» » Шафер напрокат / The Wedding Ringer (2015) BDRip 720p | iTunes скачать торрент бесплатно




    Шафер напрокат / The Wedding Ringer (2015) BDRip 720p | iTunes скачать торрент бесплатно

    Опубликовал: Админ | Дата: 1-05-2015, 05:39 | Просмотров: 190



    Детально о кино
    Русское название: Шафер напрокат
    Русское название в мировом прокате: The Wedding Ringer
    Создали в: 2015
    Категория жанра: мелодрама, комедия
    Главный режиссер: Джереми Гарелик

    Актеры
    Кевин Харт, Джош Гад, Кейли Куоко-Суитинг, Эффион Крокетт, Хорхе Гарсиа, Дэн Гилл, Кори Холкомб, Кен Ховард, Колин Кэйн, Клорис Личмен

    Сюжет фильма
    Главный герой женится на девушке своей мечты. Он купил кольца и смокинг, оплатил шикарный ресторан, но для идеальной церемонии не хватает маленькой детали — друзей жениха. Эту услугу он находит в специальном агентстве, где напрокат получает целый комплект друзей… Пройдет ли теперь подготовка и сама свадьба идеально?


    Снималось в: США
    Время просмотра: 01: 41: 26
    Тип перевода: Дублированное iTunes
    Файл
    Тип видео: MKV
    Качество фильма: BDRip 720p
    Информация о видео: 5166 kb/s, 1280x534
    Информация о звуке: Russian: АС3, 384 kb/s (6 ch)/English: DTS, 1510 kb/s (6 ch)
    Субтитры: English
    MI

    Format : Matroska
    Format version : Version 4/Version 2
    File size : 5.12 GiB
    Duration : 1h 41mn
    Overall bit rate : 7 230 Kbps
    Encoded date : UTC 2015-04-30 14: 39: 05
    Writing application : mkvmerge v6.5.0 (;Isn;t she lovely;) built on Oct 20 2013 12: 50: 05
    Writing library : libebml v1.3.0 + libmatroska v1.4.1
    Video
    ID : 1
    Format : AVC
    Format/Info : Advanced Video Codec
    Format profile : High@L4.1
    Format settings, CABAC : Yes
    Format settings, ReFrames : 12 frames
    Codec ID : V_MPEG4/ISO/AVC
    Duration : 1h 41mn
    Width : 1 280 pixels
    Height : 534 pixels
    Display aspect ratio : 2.40: 1
    Frame rate : 23.976 fps
    Color space : YUV
    Chroma subsampling : 4: 2: 0
    Bit depth : 8 bits
    Scan type : Progressive
    Writing library : x264 core 142 r2431+42 c69a006 tMod 8-bit@4: 2: 0 X86_64
    Encoding settings : cabac=1/ref=12/deblock=1: -3: -3/analyse=0x3: 0x113/me=umh/subme=11/psy=1/fade_compensate=0.00/psy_rd=1.00: 0.00/mixed_ref=1/me_range=32/chroma_me=1/trellis=2/8x8dct=1/cqm=0/deadzone=21, 11/fast_pskip=0/chroma_qp_offset=-4/threads=12/lookahead_threads=2/sliced_threads=0/nr=0/decimate=0/interlaced=0/bluray_compat=0/constrained_intra=0/fgo=0/bframes=7/b_pyramid=2/b_adapt=2/b_bias=0/direct=3/weightb=1/open_gop=0/weightp=2/keyint=250/keyint_min=23/scenecut=40/intra_refresh=0/rc_lookahead=60/rc=crf/mbtree=0/crf=15.5000/qcomp=0.75/qpmin=0: 0: 0/qpmax=69: 69: 69/qpstep=4/vbv_maxrate=62500/vbv_bufsize=78125/crf_max=0.0/nal_hrd=none/filler=0/ip_ratio=1.30/pb_ratio=1.30/aq=4: 0.80/aq-sensitivity=10.00/aq-factor=1.00: 1.00: 1.00/aq2=0/aq3=0
    Language : English
    Default : Yes
    Forced : No
    Audio #1
    ID : 2
    Format : AC-3
    Format/Info : Audio Coding 3
    Mode extension : CM (complete main)
    Format settings, Endianness : Big
    Codec ID : A_AC3
    Duration : 1h 41mn
    Bit rate mode : Constant
    Bit rate : 384 Kbps
    Channel(s) : 6 channels
    Channel positions : Front: L C R, Side: L R, LFE
    Sampling rate : 48.0 KHz
    Bit depth : 16 bits
    Compression mode : Lossy
    Stream size : 279 MiB (5%)
    Language : Russian
    Default : Yes
    Forced : No
    Audio #2
    ID : 3
    Format : DTS
    Format/Info : Digital Theater Systems
    Codec ID : A_DTS
    Duration : 1h 41mn
    Bit rate mode : Constant
    Bit rate : 1 510 Kbps
    Channel(s) : 6 channels
    Channel positions : Front: L C R, Side: L R, LFE
    Sampling rate : 48.0 KHz
    Bit depth : 24 bits
    Compression mode : Lossy
    Stream size : 1.07 GiB (21%)
    Language : English
    Default : No
    Forced : No
    Audio #3
    ID : 4
    Format : AAC
    Format/Info : Advanced Audio Codec
    Format profile : LC
    Codec ID : A_AAC
    Duration : 1h 41mn
    Channel(s) : 2 channels
    Channel positions : Front: L R
    Sampling rate : 48.0 KHz
    Compression mode : Lossy
    Delay relative to video : 9ms
    Language : English
    Default : No
    Forced : No
    Text #1
    ID : 5
    Format : UTF-8
    Codec ID : S_TEXT/UTF8
    Codec ID/Info : UTF-8 Plain Text
    Language : English
    Default : No
    Forced : No
    Text #2
    ID : 6
    Format : UTF-8
    Codec ID : S_TEXT/UTF8
    Codec ID/Info : UTF-8 Plain Text
    Title : SDH
    Language : English
    Default : No
    Forced : No
    Menu
    00: 00: 00.000 : en: 00: 00: 00.000
    00: 08: 14.077 : en: 00: 08: 14.077
    00: 13: 08.538 : en: 00: 13: 08.538
    00: 19: 36.675 : en: 00: 19: 36.675
    00: 23: 17.479 : en: 00: 23: 17.479
    00: 27: 22.558 : en: 00: 27: 22.558
    00: 33: 22.417 : en: 00: 33: 22.417
    00: 40: 42.023 : en: 00: 40: 42.023
    00: 47: 49.950 : en: 00: 47: 49.950
    00: 53: 47.641 : en: 00: 53: 47.641
    01: 01: 40.906 : en: 01: 01: 40.906
    01: 07: 18.868 : en: 01: 07: 18.868
    01: 12: 35.268 : en: 01: 12: 35.268
    01: 19: 47.908 : en: 01: 19: 47.908
    01: 27: 12.978 : en: 01: 27: 12.978
    01: 35: 08.202 : en: 01: 35: 08.202
    Скриншоты





    Онлайн видео Шафер напрокат


    Размер скачиваемого торрента: 5.12 GB (5500263781 Bytes)

    Шафер напрокат/The Wedding Ringer (2015) BDRip 720p | iTunes
    загрузка...
    Рейтинг →
     (голосов: 1, оценка 4/5, голосовать можно 1 раз )

    Другие торренты по теме:

  • Свадебный мастер / Шафер напрокат (2015) HDRip скачать торрент бесплатно
  • Шафер напрокат / The Wedding Ringer (2015) HDRip | Sub скачать торрент бесплатно
  • Шафер напрокат / The Wedding Ringer (2015) BDRip 720p от Leonardo and Scarabey | iTunes скачать торрент бесплатно
  • Шафер напрокат / The Wedding Ringer (2015) BDRip-AVC от HELLYWOOD | iTunes скачать торрент бесплатно
  • Шафер напрокат / The Wedding Ringer (2015) DVD9 | Лицензия скачать торрент бесплатно
  • Шафер напрокат / The Wedding Ringer (2015) HDRip от Scarabey | Лицензия скачать торрент бесплатно
  • Шафер напрокат / The Wedding Ringer (2015) HDRip от Scarabey | Лицензия скачать торрент бесплатно


    • Комментарии (0):

      Информация

      Информация

        Посетители, находящиеся в группе Гости, не могут оставлять комментарии в данной новости.

        ↓ Меню



        ↓ Опрос

        А Вы добавили сайт в закладки?
        Да
        Не


        Top 10 за неделю (Фильмы)