.
Авторизация | Регистрация
Хочешь лучшие торренты? Добавь свой email!
Добавить
» » Никогда не сдавайся 2 / Never Back Down 2 (2011) WEB-DL 720p | P торрент скачать бесплатно




    Никогда не сдавайся 2 / Never Back Down 2 (2011) WEB-DL 720p | P торрент скачать бесплатно

    Опубликовал: Админ | Дата: 5-05-2015, 22:41 | Просмотров: 115


    Детально о кино
    Русское название: Никогда не сдавайся 2
    Русское название в мировом прокате: Never Back Down 2
    Создали в: 2011
    Категория жанра: Боевик
    Главный режиссер: Майкл Джей Уайт

    Актеры
    Стейси Асаро, Грэйлен Брайант Бэнкс, Рас Блэквелл, Бо Брассо, Эдди Браво, Джуд Кэмбайс, Грант Кейс, Трейс Шерами, Марго Николь Кларк, Жерардо Девила

    Сюжет фильма

    Четверо бойцов объединяются под руководством бывшей восходящей звезды ММА — Смешанных Боевых Искусств, — чтобы в конечном счете сразиться друг с другом и определить сильнейшего из них.

    Снималось в: США
    Время просмотра: 01: 43: 23
    Перевод текста: Профессиональный (многоголосый) Лицензия
    Файл
    Кодек для видео: H264
    Качество фильма: WEB-DL 720p
    Информация о видео: 1280x718, 3948 Кбит/с, MPEG-4 AVC
    Информация о звуке: Русский (АС3, 6 ch, 384 Кбит/с), английский (АС3, 6 ch, 384 Кбит/с)
    Семпл
    MediaInfo

    Общее
    Уникальный идентификатор : 202589704653317828310472422138709299623 (0x98695B9CD2046701B2FCC565876451A7)
    Полное имя : E: КиноНикогда.не.сдавайся.2.2011.WEB-DL.720p.P.Rus.Eng.mkv
    Формат : Matroska
    Версия формата : Version 4/Version 2
    Размер файла : 3, 48 Гбайт
    Продолжительность : 1 ч. 43 м.
    Общий поток : 4803 Кбит/сек
    Дата кодирования : UTC 2015-05-04 09: 36: 51
    Программа кодирования : mkvmerge v7.1.0 (;Good Love;) 64bit built on Jul 27 2014 13: 06: 55
    Библиотека кодирования : libebml v1.3.0 + libmatroska v1.4.1
    DURATION : 01: 43: 35.552000000
    NUMBER_OF_FRAMES : 194236
    NUMBER_OF_BYTES : 298346496
    _STATISTICS_WRITING_APP : mkvmerge v7.1.0 (;Good Love;) 64bit built on Jul 27 2014 13: 06: 55
    _STATISTICS_WRITING_DATE_UTC : 2015-05-04 09: 36: 51
    _STATISTICS_TAGS : BPS DURATION NUMBER_OF_FRAMES NUMBER_OF_BYTES
    Видео
    Идентификатор : 1
    Формат : AVC
    Формат/Информация : Advanced Video Codec
    Профиль формата : High@L3.1
    Параметр CABAC формата : Нет
    Параметр ReFrames формата : 2 кадра
    Идентификатор кодека : V_MPEG4/ISO/AVC
    Продолжительность : 1 ч. 43 м.
    Битрейт : 3940 Кбит/сек
    Ширина : 1280 пикселей
    Высота : 718 пикселей
    Соотношение сторон : 16: 9
    Соотношение сторон в оригинале : 16: 9
    Режим частоты кадров : Постоянный
    Частота кадров : 23, 976 кадра/сек
    Цветовое пространство : YUV
    Субдискретизация насыщенности : 4: 2: 0
    Битовая глубина : 8 бит
    Тип развёртки : Прогрессивная
    Бит/(Пиксели*Кадры) : 0.179
    Размер потока : 2, 85 Гбайт (82%)
    Язык : English
    Default : Да
    Forced : Нет
    Основные цвета : BT.709
    Характеристики трансфера : BT.709
    Коэффициенты матрицы : BT.709
    Аудио #1
    Идентификатор : 2
    Формат : AC-3
    Формат/Информация : Audio Coding 3
    Расширение режима : CM (complete main)
    Параметр Endianness формата : Big
    Идентификатор кодека : A_AC3
    Продолжительность : 1 ч. 43 м.
    Вид битрейта : Постоянный
    Битрейт : 384 Кбит/сек
    Каналы : 6 каналов
    Расположение каналов : Front: L C R, Side: L R, LFE
    Частота : 48, 0 КГц
    Битовая глубина : 16 бит
    Метод сжатия : С потерями
    Размер потока : 285 Мбайт (8%)
    Заголовок : Русский (АС3, 6 ch, 384 Кбит/с)
    Язык : Russian
    Default : Да
    Forced : Нет
    Аудио #2
    Идентификатор : 3
    Формат : AC-3
    Формат/Информация : Audio Coding 3
    Расширение режима : CM (complete main)
    Параметр Endianness формата : Big
    Идентификатор кодека : A_AC3
    Продолжительность : 1 ч. 43 м.
    Вид битрейта : Постоянный
    Битрейт : 384 Кбит/сек
    Каналы : 6 каналов
    Расположение каналов : Front: L C R, Side: L R, LFE
    Частота : 48, 0 КГц
    Битовая глубина : 16 бит
    Метод сжатия : С потерями
    Размер потока : 285 Мбайт (8%)
    Заголовок : Английский (АС3, 6 ch, 384 Кбит/с)
    Язык : English
    Default : Нет
    Forced : Нет
    Скриншоты

    Залил: Romanzo

    Онлайн видео Никогда не сдавайся 2


    Размер скачиваемого торрента: 3.48 GB (3731862777 Bytes)

    Никогда не сдавайся 2/Never Back Down 2 (2011) WEB-DL 720p | P
    загрузка...
    Рейтинг →
     (голосов: 1, оценка 3/5, голосовать можно 1 раз )

    Другие торренты по теме:

  • Джеймс Бонд. Агент 007: Никогда не говори никогда / James Bond: Never Say Never Again (1983) HDRip-AVC | iPhone
  • Никогда не говори никогда / Never Say Never Again (1983) BDRip 1080p | P, P2, A
  • Почему мужчины никогда не слушают, а женщины не умеют парковаться / Warum Manner nicht zuhoren und Frauen schlecht (2007) HDTVRip AVC от MediaClub
  • Ай Вейвей: Никогда не извиняйся / Ai Weiwei: Never Sorry (2012) DVD9 | Лицензия
  • Никогда не сдавайся / Never Back Down (2008) BDRip 720p от NoLimits-Team
  • Дочь солдата никогда не плачет / A Soldier`s Daughter Never Cries (1998) DVD9 | P, A
  • Ночь, в которую мы никогда не встретимся / The Night We Never Met (1993) DVDRip от Brazzass
  • Никогда не вытирай слезы без перчаток / Torka aldrig tarar utan handskar / Never wipe tears without gloves (2012) DVDRip-AVC | L1


    • Комментарии (0):

      Информация

      Информация

        Посетители, находящиеся в группе Гости, не могут оставлять комментарии в данной новости.

        ↓ Меню



        ↓ Опрос

        А Вы добавили сайт в закладки?
        Да
        Не


        Top 10 за месяц (Фильмы)