.
Авторизация | Регистрация
Хочешь лучшие торренты? Добавь свой email!
Добавить
» » P.S. Я люблю тебя / P.S. I Love You (2007) BDRip 720p | D торрент скачать бесплатно




    P.S. Я люблю тебя / P.S. I Love You (2007) BDRip 720p | D торрент скачать бесплатно

    Опубликовал: Админ | Дата: 14-05-2015, 05:34 | Просмотров: 139


    Детально о кино
    Русское название: P.S. Я люблю тебя
    Русское название в мировом прокате: P.S. I Love You
    Создали в: 2007
    Категория жанра: Драма, мелодрама
    Главный режиссер: Ричард Лагравенезе

    Актеры
    Хилари Суонк, Джерард Батлер, Лиза Кудроу, Джина Гершон, Джеймс Марстерс, Кэти Бэйтс, Гарри Конник мл., Нелли Маккей, Джеффри Дин Морган, Дин Уинтерс, Дэн Флёри, Энн Кент, Брайан Макграт, Рене Скотт, Майк Дойл

    Сюжет фильма

    Он и она созданы друг для друга, две половинки одного целого, которые, прожив душа в душу долгую счастливую жизнь могли бы спокойно умереть в один день. Но судьба распоряжается иначе, и она очень скоро остается вдовой. Но даже после смерти муж не оставляет свою любимую жену: заблаговременно он оставил ей 7 посланий, которые должны помочь ей пережить утрату. Каждое заканчивается постскриптумом Я люблю тебя.

    Снималось в: США
    Время просмотра: 02: 05: 53
    Перевод текста: Дубляж (Пифагор)
    Файл
    Кодек для видео: AVC
    Качество фильма: BD 720p
    Исходник: ESP AVC 28916 kbps
    Информация о видео: 1280x696 7891 kbps 24.000 fps 0.369 bit/pixel
    Информация о звуке:
    1. English DTS 5.1 48 kHz 1509 kbps 16-bit Оригинал
    2. Russian DTS 5.1 48 kHz 755 kbps 24-bit Дубляж
    Субтитры: (PGS) Русские, Английские
    Скриншоты

    MediaInfo

    x264 info: frame I: 1455 Avg QP: 16.16 size: 153393
    x264 info: frame P: 34305 Avg QP: 17.52 size: 79083
    x264 info: frame B: 145344 Avg QP: 19.28 size: 32294
    General
    Unique ID : 224977652438337909823865395700688277694 (0xA9411EA8E97E83359E68A0BF8348D0BE)
    Complete name : E: /Done/P.S. I Love You (2007).mkv
    Format : Matroska
    Format version : Version 4/Version 2
    File size : 9.11 GiB
    Duration : 2h 5mn
    Overall bit rate : 10.4 Mbps
    Movie name : P.S. I Love You (2007)
    Encoded date : UTC 2015-05-12 22: 47: 11
    Writing application : mkvmerge v7.9.0 (;Birds;) 64bit
    Writing library : libebml v1.3.1 + libmatroska v1.4.2
    Attachements : cover.jpg
    Source : BD ESP AVC 28916 kbps
    Video
    ID : 1
    Format : AVC
    Format/Info : Advanced Video Codec
    Format profile : High@L4.1
    Format settings, CABAC : Yes
    Format settings, ReFrames : 9 frames
    Codec ID : V_MPEG4/ISO/AVC
    Duration : 2h 5mn
    Bit rate : 7 891 Kbps
    Width : 1 280 pixels
    Height : 696 pixels
    Display aspect ratio : 1.85: 1
    Frame rate mode : Constant
    Frame rate : 24.000 fps
    Color space : YUV
    Chroma subsampling : 4: 2: 0
    Bit depth : 8 bits
    Scan type : Progressive
    Bits/(Pixel*Frame) : 0.369
    Stream size : 6.94 GiB (76%)
    Title : P.S. I Love You (2007)
    Writing library : x264 core 146 r2538 121396c
    Encoding settings : cabac=1/ref=9/deblock=1: -3: -3/analyse=0x3: 0x133/me=umh/subme=10/psy=1/psy_rd=1.00: 0.00/mixed_ref=1/me_range=24/chroma_me=1/trellis=2/8x8dct=1/cqm=0/deadzone=21, 11/fast_pskip=1/chroma_qp_offset=-2/threads=3/lookahead_threads=1/sliced_threads=0/nr=0/decimate=1/interlaced=0/bluray_compat=0/constrained_intra=0/bframes=9/b_pyramid=2/b_adapt=2/b_bias=0/direct=1/weightb=1/open_gop=0/weightp=2/keyint=240/keyint_min=24/scenecut=40/intra_refresh=0/rc_lookahead=60/rc=crf/mbtree=0/crf=16.6/qcomp=0.60/qpmin=0/qpmax=69/qpstep=4/vbv_maxrate=50000/vbv_bufsize=62500/crf_max=0.0/nal_hrd=none/filler=0/ip_ratio=1.40/pb_ratio=1.30/aq=2: 1.00/zones=173959, 181103, q=26
    Language : English
    Default : Yes
    Forced : No
    Audio #1
    ID : 2
    Format : DTS
    Format/Info : Digital Theater Systems
    Mode : 16
    Format settings, Endianness : Big
    Codec ID : A_DTS
    Duration : 2h 5mn
    Bit rate mode : Constant
    Bit rate : 1 509 Kbps
    Channel(s) : 6 channels
    Channel positions : Front: L C R, Side: L R, LFE
    Sampling rate : 48.0 KHz
    Bit depth : 16 bits
    Compression mode : Lossy
    Stream size : 1.33 GiB (15%)
    Title : Оригинал (BD US)
    Language : English
    Default : No
    Forced : No
    Audio #2
    ID : 3
    Format : DTS
    Format/Info : Digital Theater Systems
    Mode : 16
    Format settings, Endianness : Big
    Codec ID : A_DTS
    Duration : 2h 5mn
    Bit rate mode : Constant
    Bit rate : 755 Kbps
    Channel(s) : 6 channels
    Channel positions : Front: L C R, Side: L R, LFE
    Sampling rate : 48.0 KHz
    Bit depth : 24 bits
    Compression mode : Lossy
    Stream size : 679 MiB (7%)
    Title : Пифагор (R5)
    Language : Russian
    Default : No
    Forced : No
    Text #1
    ID : 4
    Format : PGS
    Muxing mode : zlib
    Codec ID : S_HDMV/PGS
    Codec ID/Info : The same subtitle format used on BDs/HD-DVDs
    Language : English
    Default : No
    Forced : No
    Text #2
    ID : 5
    Format : UTF-8
    Codec ID : S_TEXT/UTF8
    Codec ID/Info : UTF-8 Plain Text
    Title : R5
    Language : Russian
    Default : No
    Forced : No
    Menu
    00: 00: 00.000 : en: Something He Said
    00: 05: 16.667 : en: Going to Last
    00: 10: 17.001 : en: Shake It Baby (Credits)
    00: 13: 43.201 : en: Winter Wake
    00: 22: 34.334 : en: Stay Here with Me
    00: 25: 43.501 : en: Holly/Judy Duet
    00: 28: 44.335 : en: Happy Birthday
    00: 31: 57.335 : en: I Have a Syndrome
    00: 37: 37.669 : en: Sign on the Job
    00: 42: 12.003 : en: Karaoke Night
    00: 47: 13.370 : en: Return Engagement
    00: 50: 19.704 : en: What Do Women Want?
    00: 53: 03.338 : en: Gerry;s Things
    00: 57: 21.538 : en: Travel Plans
    01: 00: 32.506 : en: Ireland
    01: 03: 36.673 : en: Wrong Song
    01: 09: 01.507 : en: Boating News
    01: 13: 41.341 : en: Willie for Dinner
    01: 18: 59.841 : en: Billy From the Band
    01: 22: 34.175 : en: Mum and Dad
    01: 25: 39.342 : en: Mind If We Walk?
    01: 28: 57.342 : en: End of Life As We Know It
    01: 36: 27.876 : en: The Shoe Fits
    01: 41: 47.343 : en: Somebody’s Gerry
    01: 45: 38.843 : en: Final Delivery
    01: 51: 35.210 : en: Friends Forever
    01: 57: 47.844 : en: See You Around
    02: 00: 35.344 : en: Dedication and End Credits


    Онлайн видео P.S. Я люблю тебя


    Размер скачиваемого торрента: 9.11 GB (9782362941 Bytes)

    P.S. Я люблю тебя/P.S. I Love You (2007) BDRip 720p | D
    загрузка...
    Рейтинг →
     (голосов: 1, оценка 3/5, голосовать можно 1 раз )

    Другие торренты по теме:

  • Мой партнер / Na-eui PS pa-teu-neo / My PS Partner (2012) BDRip 1080p от MediaClub
  • Мой партнёр / My PS Partner (2012) HDRip | L2


    • Комментарии (0):

      Информация

      Информация

        Посетители, находящиеся в группе Гости, не могут оставлять комментарии в данной новости.

        ↓ Меню



        ↓ Опрос

        А Вы добавили сайт в закладки?
        Да
        Не


        Top 10 за месяц (Фильмы)