.
Авторизация | Регистрация
Хочешь лучшие торренты? Добавь свой email!
Добавить
» » Догвилль / Dogville (2003) HDTVRip 720p | D торрент скачать бесплатно




    Догвилль / Dogville (2003) HDTVRip 720p | D торрент скачать бесплатно

    Опубликовал: Админ | Дата: 16-05-2015, 05:34 | Просмотров: 201


    Детально о кино
    Русское название: Догвилль
    Русское название в мировом прокате: Dogville
    Создали в: 2003
    Категория жанра: драма, триллер, детектив
    Главный режиссер: Ларс фон Триер/Lars von Trier/

    Актеры
    Николь Кидман/Nicole Kidman/ , Пол Беттани/Paul Bettany/ , Харриет Андерссон/Harriet Andersson/ , Патришия Кларксон/Patricia Clarkson/ , Бен Газзара/Ben Gazzara/ , Филип Бейкер Холл/Philip Baker Hall/ , Джереми Дэвис/Jeremy Davies/ , Хлоя Севиньи/Chlo? Sevigny/ , Стеллан Скарсгард/Stellan Skarsg?rd/ , Лорен Бэколл/Lauren Bacall/

    Сюжет фильма

    1930-е годы. Спасаясь от гангстеров, юная Грэйс оказывается в городке Догвилль где-то в Скалистых горах. Местные жители нехотя соглашаются приютить беглянку, если она будет работать на них, но затем их запросы становятся непомерными, а страх разоблачения превращает обывателей в жестоких подонков.
    Постепенно Грэйс становится рабыней тихих обитателей Догвилля, убеждаясь, что в этом городе у доброты есть оборотная сторона. Однако никто не знает, как опасна может быть Грэйс. Вскоре Догвилль пожалеет, что посмел обнажить свои клыки…

    Страны: Дания, Швеция, Великобритания, Франция и др.
    Студии: Zentropa Entertainments/Isabella Films B.V./Something Else B.V./Memfis Film и др.
    Время просмотра: 02: 57: 54
    Перевод текста: Профессиональный (дублированный) -студия Мосфильм-Мастер
    Файл
    Кодек для видео: H.264
    Качество фильма: HDTVRip 720p
    Информация о видео: 1280x544 at 23.976 fps, x264@L5.1, 2pass, ~6007 kbps avg
    Информация о звуке#1: Russian: 48 kHz, AC3, 3/2 (L, C, R, l, r) + LFE ch, ~448.00 kbps avg |Дублированный, студия Мосфильм-Мастер |
    Информация о звуке#2: English: 48 kHz, AC3, 3/2 (L, C, R, l, r) + LFE ch, ~384.00 kbps avg |Оригинал|
    Субтитры: Russian (Full), English (Full, SDH)
    Скриншоты

    MediaInfo
    General
    Complete name : Dogville.2003.HDTV.720p.Rus.Eng.mkv
    Format : Matroska
    Format version : Version 4/Version 2
    File size : 8.50 GiB
    Duration : 2h 57mn
    Overall bit rate : 6 841 Kbps
    Movie name : Dogville (2003)
    Encoded date : UTC 2015-05-15 13: 10: 48
    Writing application : mkvmerge v7.9.0 (;Birds;) 64bit
    Writing library : libebml v1.3.1 + libmatroska v1.4.2
    Video
    ID : 1
    Format : AVC
    Format/Info : Advanced Video Codec
    Format profile : High@L5.1
    Format settings, CABAC : Yes
    Format settings, ReFrames : 11 frames
    Codec ID : V_MPEG4/ISO/AVC
    Duration : 2h 57mn
    Bit rate : 6 007 Kbps
    Width : 1 280 pixels
    Height : 544 pixels
    Display aspect ratio : 2.35: 1
    Frame rate mode : Constant
    Frame rate : 23.976 fps
    Color space : YUV
    Chroma subsampling : 4: 2: 0
    Bit depth : 8 bits
    Scan type : Progressive
    Bits/(Pixel*Frame) : 0.360
    Stream size : 7.30 GiB (86%)
    Title : Dogville (2003)
    Writing library : x264 core 54 svn-620M
    Encoding settings : cabac=1/ref=8/deblock=1: -2: -2/analyse=0x3: 0x133/me=hex/subme=6/brdo=1/mixed_ref=1/me_range=16/chroma_me=1/trellis=1/8x8dct=1/cqm=0/deadzone=21, 11/chroma_qp_offset=0/threads=2/nr=0/decimate=1/mbaff=0/bframes=3/b_pyramid=1/b_adapt=1/b_bias=0/direct=1/wpredb=1/bime=1/keyint=250/keyint_min=25/scenecut=40(pre)/rc=2pass/bitrate=6007/ratetol=1.0/rceq=;blurCplx^(1-qComp);/qcomp=0.60/qpmin=10/qpmax=51/qpstep=4/cplxblur=20.0/qblur=0.5/ip_ratio=1.40/pb_ratio=1.30
    Language : English
    Default : Yes
    Forced : No
    Audio #1
    ID : 2
    Format : AC-3
    Format/Info : Audio Coding 3
    Mode extension : CM (complete main)
    Format settings, Endianness : Big
    Codec ID : A_AC3
    Duration : 2h 57mn
    Bit rate mode : Constant
    Bit rate : 448 Kbps
    Channel(s) : 6 channels
    Channel positions : Front: L C R, Side: L R, LFE
    Sampling rate : 48.0 KHz
    Bit depth : 16 bits
    Compression mode : Lossy
    Stream size : 570 MiB (7%)
    Title : AC3 5.1 ch @ 448 kbps - DUB (студия Мосфильм-Мастер)
    Language : Russian
    Default : Yes
    Forced : No
    Audio #2
    ID : 3
    Format : AC-3
    Format/Info : Audio Coding 3
    Mode extension : CM (complete main)
    Format settings, Endianness : Big
    Codec ID : A_AC3
    Duration : 2h 57mn
    Bit rate mode : Constant
    Bit rate : 384 Kbps
    Channel(s) : 6 channels
    Channel positions : Front: L C R, Side: L R, LFE
    Sampling rate : 48.0 KHz
    Bit depth : 16 bits
    Compression mode : Lossy
    Stream size : 489 MiB (6%)
    Title : AC3 5.1 ch @ 384 kbps
    Language : English
    Default : No
    Forced : No
    Text #1
    ID : 4
    Format : UTF-8
    Codec ID : S_TEXT/UTF8
    Codec ID/Info : UTF-8 Plain Text
    Title : Full
    Language : Russian
    Default : No
    Forced : No
    Text #2
    ID : 5
    Format : UTF-8
    Codec ID : S_TEXT/UTF8
    Codec ID/Info : UTF-8 Plain Text
    Title : Full
    Language : English
    Default : No
    Forced : No
    Text #3
    ID : 6
    Format : UTF-8
    Codec ID : S_TEXT/UTF8
    Codec ID/Info : UTF-8 Plain Text
    Title : SDH
    Language : English
    Default : No
    Forced : No


    Онлайн видео Догвилль


    Размер скачиваемого торрента: 8.50 GB (9127946993 Bytes)

    Догвилль/Dogville (2003) HDTVRip 720p | D
    загрузка...
    Рейтинг →
     (голосов: 1, оценка 5/5, голосовать можно 1 раз )

    Другие торренты по теме:



      Комментарии (0):

      Информация

      Информация

        Посетители, находящиеся в группе Гости, не могут оставлять комментарии в данной новости.

        ↓ Меню



        ↓ Опрос

        А Вы добавили сайт в закладки?
        Да
        Не


        Top 10 за месяц (Фильмы)