.
Авторизация | Регистрация
Хочешь лучшие торренты? Добавь свой email!
Добавить
» » Аватар / Avatar (2009) BDRip 720p от HQCLUB | Extended Collectors Edition | D, P2, A | Лицензия торрент скачать бесплатно




    Аватар / Avatar (2009) BDRip 720p от HQCLUB | Extended Collectors Edition | D, P2, A | Лицензия торрент скачать бесплатно

    Опубликовал: Админ | Дата: 17-05-2015, 05:34 | Просмотров: 210

    Аватар/Avatar Extended Collector;s Edition (2009) BDRip 720p
    от
    HQCLUB

    Детально о кино:
    Русское название: Аватар
    Русское название в мировом прокате: Avatar
    Создали в: 2009
    Категория жанра: фантастика, боевик, драма, приключения
    Главный режиссер: Джеймс Кэмерон/James Cameron

    Актеры
    Сэм Уортингтон, Зои Салдана, Сигурни Уивер, Стивен Лэнг, Мишель Родригес, Джованни Рибизи, Джоэль Мур, Си Си Эйч Паундер, Уэс Студи, Лас Алонсо

    Сюжет фильма
    Джейк Салли — бывший морской пехотинец, прикованный к инвалидному креслу. Несмотря на немощное тело, Джейк в душе по-прежнему остается воином. Он получает задание совершить путешествие в несколько световых лет к базе землян на планете Пандора, где корпорации добывают редкий минерал, имеющий огромное значение для выхода Земли из энергетического кризиса.
    Это новый мир

    Релиз от -
    Автор рипа: Elheym
    Снималось в: США, Великобритания ? 20th Century Fox Film Corporation, Dune Entertainment, Giant Studios Inc., Ingenious Media, Millennium Films
    Время просмотра: 02: 58: 09
    Перевод текста 1: Профессиональный (полное дублирование) BD EUR
    Перевод текста 2: Профессиональный (двухголосый, закадровый) Кубик в кубе
    Перевод текста 3: Авторский (одноголосый, закадровый) Ю. Сербин
    Оригинальная аудиодорожка: английская
    Субтитры: русские (экстраполные, экстрафорсированные: стилизованные, цветные), английские (полные, экстрафорсированные, SDH, SDH цветные)
    Главы: присутствуют, сохранены оригинальные (подписаны)
    Файл:
    Тип видео: MKV
    Качество фильма: BDRip 720p (источник: / Blu-ray EUR Remux AVATAR RUS REMUX/ 1080p)
    Информация о видео: 1280x720 (16: 9), 23.976 fps, MPEG-4 AVC, ~9400 kbps avg, 0.425 bit/pixel
    Информация о звуке #1: 48 kHz, AC3 Dolby Digital, 3/2 (L, C, R, l, r) + LFE ch, ~640 kbps avg (DUB)
    Информация о звуке #2: 48 kHz, AC3 Dolby Digital, 3/2 (L, C, R, l, r) + LFE ch, ~640 kbps avg (DVO.KUBIK.V.KUBE)
    Информация о звуке #3: 48 kHz, AC3 Dolby Digital, 3/2 (L, C, R, l, r) + LFE ch, ~640 kbps avg (AVO.SERBIN)
    Информация о звуке #4: 48 kHz, AC3 Dolby Digital, 3/2 (L, C, R, l, r) + LFE ch, ~640 kbps avg (ENG)
    Размер скачиваемого торрента: 14.90 GB
    Сэмпл: скачать

    MediaInfo

    Уникальный идентификатор : 243073127096287607028586128216709170227 (0xB6DE2E71379F21CB84DE2AD161188433)
    Полное имя : Avatar.Extended.Collectors.Edition.2009.720p.BluRay.3xRus.Eng.-HQCLUB.mkv
    Формат : Matroska
    Версия формата : Version 2
    Размер файла : 14, 9 Гбайт
    Продолжительность : 2 ч. 58 м.
    Общий поток : 12, 0 Мбит/сек
    Название фильма : Аватар Расширенное Коллекционное Издание/Avatar Extended Collector;s Edition (2009) BDRip 720p by HQCLUB Elheym
    Дата кодирования : UTC 2015-05-16 18: 05: 09
    Программа кодирования : mkvmerge v5.2.0 (;I can;t explain;) built on Dec 18 2011 18: 12: 03
    Библиотека кодирования : libebml v1.2.3 + libmatroska v1.3.0
    Attachements : Cover.gif/Avatar.ttf
    Видео
    Идентификатор : 1
    Формат : AVC
    Формат/Информация : Advanced Video Codec
    Профиль формата : High@L4.1
    Параметр CABAC формата : Да
    Параметр ReFrames формата : 5 кадров
    Идентификатор кодека : V_MPEG4/ISO/AVC
    Продолжительность : 2 ч. 58 м.
    Битрейт : 9400 Кбит/сек
    Ширина : 1280 пикселей
    Высота : 720 пикселей
    Соотношение сторон : 16: 9
    Режим частоты кадров : Постоянный
    Частота кадров : 23, 976 кадра/сек
    Цветовое пространство : YUV
    Субдискретизация насыщенности : 4: 2: 0
    Битовая глубина : 8 бит
    Тип развёртки : Прогрессивная
    Бит/(Пиксели*Кадры) : 0.425
    Размер потока : 11, 4 Гбайт (77%)
    Заголовок : Аватар Расширенное Коллекционное Издание/Avatar Extended Collector;s Edition (2009) BDRip 720p by HQCLUB Elheym
    Библиотека кодирования : x264 core 144 r2525kMod 40bb568
    Настройки программы : cabac=1/ref=6/deblock=1: -1: -1/analyse=0x3: 0x113/me=umh/subme=11/psy=1/fade_compensate=0.00/psy_rd=0.90: 0.05/mixed_ref=1/me_range=32/chroma_me=1/trellis=2/8x8dct=1/cqm=0/deadzone=21, 11/fast_pskip=0/chroma_qp_offset=-5/threads=6/lookahead_threads=1/sliced_threads=0/nr=0/decimate=1/interlaced=0/bluray_compat=0/constrained_intra=0/fgo=0/bframes=7/b_pyramid=1/b_adapt=2/b_bias=0/direct=3/weightb=1/open_gop=0/weightp=2/keyint=230/keyint_min=23/scenecut=40/intra_refresh=0/rc_lookahead=40/rc=2pass/mbtree=0/bitrate=9400/ratetol=1.0/qcomp=0.74/qpmin=0/qpmax=69/qpstep=4/cplxblur=20.0/qblur=0.5/vbv_maxrate=50000/vbv_bufsize=62500/nal_hrd=none/filler=0/ip_ratio=1.40/pb_ratio=1.30/aq=1: 0.85/zones=249103, 256290, b=0.35
    Язык : English
    Default : Да
    Forced : Нет
    Аудио #1
    Идентификатор : 2
    Формат : AC-3
    Формат/Информация : Audio Coding 3
    Расширение режима : CM (complete main)
    Параметр Endianness формата : Big
    Идентификатор кодека : A_AC3
    Продолжительность : 2 ч. 58 м.
    Вид битрейта : Постоянный
    Битрейт : 640 Кбит/сек
    Каналы : 6 каналов
    Расположение каналов : Front: L C R, Side: L R, LFE
    Частота : 48, 0 КГц
    Битовая глубина : 16 бит
    Метод сжатия : С потерями
    Размер потока : 816 Мбайт (5%)
    Заголовок : АС3 5.1 @ 640 kbps - Dub, BD EUR
    Язык : Russian
    Default : Нет
    Forced : Нет
    Аудио #2
    Идентификатор : 3
    Формат : AC-3
    Формат/Информация : Audio Coding 3
    Расширение режима : CM (complete main)
    Параметр Endianness формата : Big
    Идентификатор кодека : A_AC3
    Продолжительность : 2 ч. 58 м.
    Вид битрейта : Постоянный
    Битрейт : 640 Кбит/сек
    Каналы : 6 каналов
    Расположение каналов : Front: L C R, Side: L R, LFE
    Частота : 48, 0 КГц
    Битовая глубина : 16 бит
    Метод сжатия : С потерями
    Размер потока : 816 Мбайт (5%)
    Заголовок : АС3 5.1 @ 640 kbps - DVO, Kubik v kube
    Язык : Russian
    Default : Нет
    Forced : Нет
    Аудио #3
    Идентификатор : 4
    Формат : AC-3
    Формат/Информация : Audio Coding 3
    Расширение режима : CM (complete main)
    Параметр Endianness формата : Big
    Идентификатор кодека : A_AC3
    Продолжительность : 2 ч. 58 м.
    Вид битрейта : Постоянный
    Битрейт : 640 Кбит/сек
    Каналы : 6 каналов
    Расположение каналов : Front: L C R, Side: L R, LFE
    Частота : 48, 0 КГц
    Битовая глубина : 16 бит
    Метод сжатия : С потерями
    Размер потока : 816 Мбайт (5%)
    Заголовок : АС3 5.1 @ 640 kbps - AVO, Serbin
    Язык : Russian
    Default : Нет
    Forced : Нет
    Аудио #4
    Идентификатор : 5
    Формат : AC-3
    Формат/Информация : Audio Coding 3
    Расширение режима : CM (complete main)
    Параметр Endianness формата : Big
    Идентификатор кодека : A_AC3
    Продолжительность : 2 ч. 58 м.
    Вид битрейта : Постоянный
    Битрейт : 640 Кбит/сек
    Каналы : 6 каналов
    Расположение каналов : Front: L C R, Side: L R, LFE
    Частота : 48, 0 КГц
    Битовая глубина : 16 бит
    Метод сжатия : С потерями
    Размер потока : 816 Мбайт (5%)
    Заголовок : АС3 5.1 @ 640 kbps - Original
    Язык : English
    Default : Нет
    Forced : Нет
    Текст #1
    Идентификатор : 6
    Формат : ASS
    Идентификатор кодека : S_TEXT/ASS
    Идентификатор кодека/Информация : Advanced Sub Station Alpha
    Метод сжатия : Без потерь
    Заголовок : ExtraFull Stylezed
    Язык : Russian
    Default : Нет
    Forced : Нет
    Текст #2
    Идентификатор : 7
    Формат : ASS
    Идентификатор кодека : S_TEXT/ASS
    Идентификатор кодека/Информация : Advanced Sub Station Alpha
    Метод сжатия : Без потерь
    Заголовок : ExtraForced Stylezed
    Язык : Russian
    Default : Да
    Forced : Нет
    Текст #3
    Идентификатор : 8
    Формат : UTF-8
    Идентификатор кодека : S_TEXT/UTF8
    Идентификатор кодека/Информация : UTF-8 Plain Text
    Заголовок : ExtraFull
    Язык : Russian
    Default : Нет
    Forced : Нет
    Текст #4
    Идентификатор : 9
    Формат : UTF-8
    Идентификатор кодека : S_TEXT/UTF8
    Идентификатор кодека/Информация : UTF-8 Plain Text
    Заголовок : ExtraForced
    Язык : Russian
    Default : Нет
    Forced : Нет
    Текст #5
    Идентификатор : 10
    Формат : UTF-8
    Идентификатор кодека : S_TEXT/UTF8
    Идентификатор кодека/Информация : UTF-8 Plain Text
    Заголовок : ExtraFull Colored
    Язык : Russian
    Default : Нет
    Forced : Нет
    Текст #6
    Идентификатор : 11
    Формат : UTF-8
    Идентификатор кодека : S_TEXT/UTF8
    Идентификатор кодека/Информация : UTF-8 Plain Text
    Заголовок : ExtraForced Colored
    Язык : Russian
    Default : Нет
    Forced : Нет
    Текст #7
    Идентификатор : 12
    Формат : UTF-8
    Идентификатор кодека : S_TEXT/UTF8
    Идентификатор кодека/Информация : UTF-8 Plain Text
    Заголовок : Full
    Язык : English
    Default : Нет
    Forced : Нет
    Текст #8
    Идентификатор : 13
    Формат : UTF-8
    Идентификатор кодека : S_TEXT/UTF8
    Идентификатор кодека/Информация : UTF-8 Plain Text
    Заголовок : ExtraForced
    Язык : English
    Default : Нет
    Forced : Нет
    Текст #9
    Идентификатор : 14
    Формат : UTF-8
    Идентификатор кодека : S_TEXT/UTF8
    Идентификатор кодека/Информация : UTF-8 Plain Text
    Заголовок : Full SDH
    Язык : English
    Default : Нет
    Forced : Нет
    Текст #10
    Идентификатор : 15
    Формат : UTF-8
    Идентификатор кодека : S_TEXT/UTF8
    Идентификатор кодека/Информация : UTF-8 Plain Text
    Заголовок : Full SDH Colored
    Язык : English
    Default : Нет
    Forced : Нет
    Меню
    00: 00: 00.000 : : 01. Lost Soul
    00: 05: 25.575 : : 02. A New World
    00: 10: 12.278 : : 03. You Are Not In Kansas Anymore
    00: 11: 47.916 : : 04. This Is Your Avatar Now, Jake.
    00: 15: 59.208 : : 05. This Is Why We;re Here...
    00: 17: 54.782 : : 06. First Awakening
    00: 23: 54.892 : : 07. Colonel Quaritch
    00: 27: 54.548 : : 08. First Sortie
    00: 30: 27.617 : : 09. Abandoned Schoolhouse
    00: 32: 27.904 : : 10. Thanator Chase
    00: 37: 16.526 : : 11. A Sign
    00: 39: 08.054 : : 12. Viperwolves
    00: 41: 18.476 : : 13. Neytiri
    00: 49: 16.912 : : 14. The Omaticaya Clan
    00: 55: 42.214 : : 15. Cover Report
    01: 01: 09.416 : : 16. The Hallelujah Mountains
    01: 07: 03.228 : : 17. Learn Fast Or Die
    01: 11: 50.223 : : 18. A Mother;s Pain
    01: 15: 53.799 : : 19. Banshee Rookery
    01: 22: 38.120 : : 20. First Flight
    01: 26: 12.709 : : 21. Clan Hunt
    01: 27: 42.299 : : 22. Last Shadow
    01: 33: 00.408 : : 23. A Son Of The Omaticaya
    01: 37: 36.893 : : 24. Willow Glade Destruction
    01: 44: 15.291 : : 25. Conflict Escalation
    01: 50: 02.596 : : 26. You Will Never Be One Of The People!
    01: 51: 53.582 : : 27. Assault On Hometree
    01: 58: 30.895 : : 28. Aftermath
    02: 02: 13.284 : : 29. Escape From Hell;s Gate
    02: 07: 51.664 : : 30. There;s Something We Gotta Do...
    02: 09: 30.554 : : 31. Toruk Macto
    02: 12: 36.615 : : 32. She;s Real
    02: 16: 03.364 : : 33. Recruiting The Clans
    02: 19: 31.655 : : 34. Preamble To Battle
    02: 23: 59.631 : : 35. Battle For Pandora
    02: 30: 05.079 : : 36. Fall Of The Heroes
    02: 33: 56.853 : : 37. Eywa
    02: 40: 02.259 : : 38. Quaritch Fight
    02: 45: 33.215 : : 39. I See You
    02: 46: 48.498 : : 40. My Brother
    02: 48: 56.793 : : 41. Transformation
    02: 51: 32.073 : : 42. End Credits

    x264 log

    x264 info: frame I: 1859 Avg QP: 15.27 size: 183835
    x264 info: frame P: 78224 Avg QP: 18.01 size: 83082
    x264 info: frame B: 176208 Avg QP: 19.96 size: 32430
    x264 info: consecutive B-frames: 6.1% 7.2% 24.3% 32.3% 11.3% 17.3% 1.1% 0.4%
    x264 info: ref P L0: 64.2% 19.1% 9.5% 4.1% 2.7% 0.5% 0.0%
    x264 info: ref B L0: 92.8% 4.6% 2.0% 0.6%
    x264 info: ref B L1: 96.5% 3.5%


    Онлайн видео Аватар


    Размер скачиваемого торрента: 14.88 GB (15980710807 Bytes)

    Аватар/Avatar (2009) BDRip 720p от HQCLUB | Extended Collectors Edition | D, P2, A | Лицензия
    загрузка...
    Рейтинг →
     (голосов: 1, оценка 3/5, голосовать можно 1 раз )

    Другие торренты по теме:

  • Аватарка / Аватар / Abata (2011) DVDRip
  • Аватар / Avatar (2009) DVD9 | Extended Collectors Edition
  • Аватар: Легенда о Корре / The Last Airbender: The Legend of Korra (2012) BDRip 1080p от Freeisland
  • Аватар: Легенда о Корре / The Legend of Korra (2013) WEB-DLRip | LE-Production
  • Аватар: Легенда о Корре / The Last Airbender: The Legend of Korra (2013) WEB-DL 1080p | L1 скачать через торрент бесплатно
  • Аватар: Легенда о Корре / The Legend of Korra (2013) WEB-DL 720p | LE-Production
  • Аватар / Avatar: Cyber Wars (2004) DVDRip - от NovaLan
  • Аватар: Легенда о Корре / The Legend of Korra (2014) HDTVRip 720p | LE-Production скачать через торрент бесплатно


    • Комментарии (0):

      Информация

      Информация

        Посетители, находящиеся в группе Гости, не могут оставлять комментарии в данной новости.

        ↓ Меню



        ↓ Опрос

        А Вы добавили сайт в закладки?
        Да
        Не


        Top 10 за месяц (Фильмы)