.
Авторизация | Регистрация
» » Лихорадка / Cabin Fever (2002) BDRip 720p от HDClub | D, P, A | Unrated Directors Cut скачать торрент бесплатно




    Лихорадка / Cabin Fever (2002) BDRip 720p от HDClub | D, P, A | Unrated Directors Cut скачать торрент бесплатно

    Опубликовал: Админ | Дата: 20-05-2015, 15:02 | Просмотров: 135


    Детально о кино
    Русское название: Лихорадка
    Русское название в мировом прокате: Cabin Fever
    Создали в: 2002
    Категория жанра: ужасы, комедия
    Главный режиссер: Элай Рот

    Актеры
    Райдер Стронг, Джордан Лэдд, Джеймс ДеБелло, Серина Винсент, Джои Керн, Эри Вервин, Роберт Харрис, Хэл Кортни, Мэттью Хелмс, Ричард Бун

    Сюжет фильма

    После тяжелого учебного года пятеро студентов решают провести пару дней в маленькой лесной хижине. Несмотря на странное поведение местных жителей, они намерены как следует расслабиться, но внезапно их планы нарушает встреча с бродягой с ужасной, будто бы гниющей кожей. Ребятам удается отделаться от несчастного, но они не знают, что он успел отравить местный водоем, и неизвестная инфекция уже распространяется по округе. Кто из них станет первой жертвой страшного вируса, пожирающего человеческую плоть?

    Снималось в: США
    Время просмотра: 01: 37: 48
    Перевод текста: Перевод текста 1: Профессиональный (дублированный)
    Перевод текста 2: Профессиональный (многоголосый закадровый)
    Перевод текста 3: Авторский (одноголосый закадровый) Е. Рудой
    Файл
    Кодек для видео: x264
    Качество фильма: BDRip 720p
    Информация о видео: 1280x534 at 23.976 fps, 6091 kbps avg
    Информация о звуке 1: Russian: 48 kHz, AC3, 3/2 (L, C, R, l, r) + LFE ch, ~448.00 kbps avg |Дубляж|
    Информация о звуке 2: Russian: 48 kHz, AC3, 3/2 (L, C, R, l, r) + LFE ch, ~640.00 kbps avg |Многоголосый закадровый|
    Информация о звуке 3: Russian: 48 kHz, AC3, 3/2 (L, C, R, l, r) + LFE ch, ~640.00 kbps avg |Авторский одноголосый закадровый, Е.Рудой|
    Информация о звуке 4: English: 48 kHz, AC3, 3/2 (L, C, R, l, r) + LFE ch, ~640.00 kbps avg
    Субтитры: русские, английские, китайские, венгерские, вьетнамские
    Релиз подготовил:
    Скриншоты

    MediaInfo
    General
    Unique ID : 247903951771308226415375692315040155025 (0xBA80907CD5BAF803B2A97F54972C0591)
    Complete name : E: BDCabin.Fever.2002.720p.BluRay.3xRus.Eng.ac3.HDCLUB.nmd.mkv
    Format : Matroska
    Format version : Version 2
    File size : 6.03 GiB
    Duration : 1h 37mn
    Overall bit rate : 8 825 Kbps
    Movie name : Cabin Fever (2002)
    Encoded date : UTC 2012-12-01 18: 01: 35
    Writing application : mkvmerge v5.8.0 (;No Sleep/Pillow;) built on Sep 2 2012 15: 37: 04
    Writing library : libebml v1.2.3 + libmatroska v1.3.0
    Video
    ID : 1
    Format : AVC
    Format/Info : Advanced Video Codec
    Format profile : High@L4.1
    Format settings, CABAC : Yes
    Format settings, ReFrames : 12 frames
    Codec ID : V_MPEG4/ISO/AVC
    Duration : 1h 37mn
    Bit rate : 6 058 Kbps
    Width : 1 280 pixels
    Height : 534 pixels
    Display aspect ratio : 2.40: 1
    Frame rate mode : Constant
    Frame rate : 23.976 fps
    Color space : YUV
    Chroma subsampling : 4: 2: 0
    Bit depth : 8 bits
    Scan type : Progressive
    Bits/(Pixel*Frame) : 0.370
    Stream size : 4.14 GiB (69%)
    Writing library : x264 core 128 r2216 198a7ea
    Encoding settings : cabac=1/ref=12/deblock=1: -3: -3/analyse=0x3: 0x113/me=umh/subme=11/psy=1/psy_rd=1.05: 0.15/mixed_ref=1/me_range=32/chroma_me=1/trellis=2/8x8dct=1/cqm=0/deadzone=6, 6/fast_pskip=1/chroma_qp_offset=-3/threads=9/lookahead_threads=1/sliced_threads=0/nr=0/decimate=0/interlaced=0/bluray_compat=0/constrained_intra=0/bframes=7/b_pyramid=2/b_adapt=2/b_bias=0/direct=1/weightb=1/open_gop=0/weightp=2/keyint=240/keyint_min=23/scenecut=40/intra_refresh=0/rc=crf/mbtree=0/crf=17.5/qcomp=0.60/qpmin=0/qpmax=69/qpstep=4/ip_ratio=1.10/pb_ratio=1.10/aq=1: 0.50
    Language : English
    Default : Yes
    Forced : No
    Color primaries : BT.709
    Transfer characteristics : BT.709
    Matrix coefficients : BT.709
    Audio #1
    ID : 2
    Format : AC-3
    Format/Info : Audio Coding 3
    Mode extension : CM (complete main)
    Format settings, Endianness : Big
    Codec ID : A_AC3
    Duration : 1h 37mn
    Bit rate mode : Constant
    Bit rate : 448 Kbps
    Channel(s) : 6 channels
    Channel positions : Front: L C R, Side: L R, LFE
    Sampling rate : 48.0 KHz
    Bit depth : 16 bits
    Compression mode : Lossy
    Stream size : 313 MiB (5%)
    Title : ac3 5.1 @ 448 kbps |Dub|
    Language : Russian
    Default : Yes
    Forced : No
    Audio #2
    ID : 3
    Format : AC-3
    Format/Info : Audio Coding 3
    Mode extension : CM (complete main)
    Format settings, Endianness : Big
    Codec ID : A_AC3
    Duration : 1h 37mn
    Bit rate mode : Constant
    Bit rate : 640 Kbps
    Channel(s) : 6 channels
    Channel positions : Front: L C R, Side: L R, LFE
    Sampling rate : 48.0 KHz
    Bit depth : 16 bits
    Compression mode : Lossy
    Stream size : 448 MiB (7%)
    Title : ac3 5.1 @ 640 kbps |MVO|
    Language : Russian
    Default : No
    Forced : No
    Audio #3
    ID : 4
    Format : AC-3
    Format/Info : Audio Coding 3
    Mode extension : CM (complete main)
    Format settings, Endianness : Big
    Codec ID : A_AC3
    Duration : 1h 37mn
    Bit rate mode : Constant
    Bit rate : 640 Kbps
    Channel(s) : 6 channels
    Channel positions : Front: L C R, Side: L R, LFE
    Sampling rate : 48.0 KHz
    Bit depth : 16 bits
    Compression mode : Lossy
    Stream size : 448 MiB (7%)
    Title : ac3 5.1 @ 640 kbps |AVO, Rudoy|
    Language : Russian
    Default : No
    Forced : No
    Audio #4
    ID : 5
    Format : AC-3
    Format/Info : Audio Coding 3
    Mode extension : CM (complete main)
    Format settings, Endianness : Big
    Codec ID : A_AC3
    Duration : 1h 37mn
    Bit rate mode : Constant
    Bit rate : 640 Kbps
    Channel(s) : 6 channels
    Channel positions : Front: L C R, Side: L R, LFE
    Sampling rate : 48.0 KHz
    Bit depth : 16 bits
    Compression mode : Lossy
    Stream size : 448 MiB (7%)
    Title : ac3 5.1 @ 640 kbps
    Language : English
    Default : No
    Forced : No
    Audio #5
    ID : 6
    Format : AC-3
    Format/Info : Audio Coding 3
    Format profile : Dolby Digital
    Mode extension : CM (complete main)
    Format settings, Endianness : Big
    Codec ID : A_AC3
    Duration : 1h 37mn
    Bit rate mode : Constant
    Bit rate : 224 Kbps
    Channel(s) : 2 channels
    Channel positions : Front: L R
    Sampling rate : 48.0 KHz
    Bit depth : 16 bits
    Compression mode : Lossy
    Stream size : 157 MiB (3%)
    Title : ac3 2.0 @ 224 kbps |commentary track|
    Language : English
    Default : No
    Forced : No
    Text #1
    ID : 7
    Format : UTF-8
    Codec ID : S_TEXT/UTF8
    Codec ID/Info : UTF-8 Plain Text
    Title : forced
    Language : Russian
    Default : Yes
    Forced : No
    Text #2
    ID : 8
    Format : UTF-8
    Codec ID : S_TEXT/UTF8
    Codec ID/Info : UTF-8 Plain Text
    Title : full
    Language : Russian
    Default : No
    Forced : No
    Text #3
    ID : 9
    Format : UTF-8
    Codec ID : S_TEXT/UTF8
    Codec ID/Info : UTF-8 Plain Text
    Title : full
    Language : English
    Default : No
    Forced : No
    Text #4
    ID : 10
    Format : UTF-8
    Codec ID : S_TEXT/UTF8
    Codec ID/Info : UTF-8 Plain Text
    Title : sdh
    Language : English
    Default : No
    Forced : No
    Text #5
    ID : 11
    Format : UTF-8
    Codec ID : S_TEXT/UTF8
    Codec ID/Info : UTF-8 Plain Text
    Language : Chinese
    Default : No
    Forced : No
    Text #6
    ID : 12
    Format : UTF-8
    Codec ID : S_TEXT/UTF8
    Codec ID/Info : UTF-8 Plain Text
    Language : Hungarian
    Default : No
    Forced : No
    Text #7
    ID : 13
    Format : UTF-8
    Codec ID : S_TEXT/UTF8
    Codec ID/Info : UTF-8 Plain Text
    Language : Vietnamese
    Default : No
    Forced : No


    Онлайн видео Лихорадка


    Размер скачиваемого торрента: 6.03 GB (6473700890 Bytes)

    Лихорадка/Cabin Fever (2002) BDRip 720p от HDClub | D, P, A | Unrated Directors Cut
    загрузка...
    Рейтинг →
     (голосов: 1, оценка 4/5, голосовать можно 1 раз )

    Другие торренты по теме:



      Комментарии (0):

      Информация

      Информация

        Посетители, находящиеся в группе Гости, не могут оставлять комментарии в данной новости.

        ↓ Меню



        ↓ Опрос

        А Вы добавили сайт в закладки?
        Да
        Не


        Top 10 за неделю (Фильмы)