.
Авторизация | Регистрация
Хочешь лучшие торренты? Добавь свой email!
Добавить
» » Темнее ночи / Mas negro que la noche (2014) WEB-DLRip-AVC | iTunes торрент скачать бесплатно




    Темнее ночи / Mas negro que la noche (2014) WEB-DLRip-AVC | iTunes торрент скачать бесплатно

    Опубликовал: Админ | Дата: 21-05-2015, 03:07 | Просмотров: 99


    Детально о кино
    Русское название: Темнее ночи
    Русское название в мировом прокате: Mas negro que la noche
    Создали в: 2014
    Категория жанра: ужасы
    Главный режиссер: Генри Бедуэлл

    Актеры
    Сурия Вега, Адриана Лувьер, Эрендира Ибарра, Она Косамикела, Маргарита Санс, Лусия Гильмаин, Хосе Мария, Торре Мигель, Родарте Сара

    Сюжет фильма
    Они следят за тобой
    Юная Грета унаследовала огромный особняк от своей покойной тети Офелии с одним единственным условием — присматривать за ее любимцем — черным котом по кличке Беккер. Обрадованная такому повороту, девушка переезжает в особняк вместе с тремя лучшими подругами. Но однажды ночью из-за неосторожности девушек кот погибает. Тех, кто нарушил завещание, теперь ждет жестокая расплата.

    Снималось в: Мексика, Испания
    Киностудия: Celeste Films, Filmadora Nacional, Neo Art
    Время просмотра: 01: 48: 51
    Перевод текста: Дублированное iTunes
    Файл
    Кодек для видео: MPEG-4 AVC (MKV)
    Качество фильма: WEB-DLRip-AVC
    Информация о видео: AVC, 1024x416, 2000 Kbps
    Информация о звуке: AC3, 6 ch, 384 Kbps
    Субтитры: нет

    Скриншоты
    MediaInfo
    General
    Unique ID : 291016958532348366076872778199594017437 (0xDAEFD3D57ADAF9A500304D6470F1A29D)
    Complete name : D: ДИСК?1.ФИЛЬМЫТемнее ночи M?s negro que la noche (2014)M?s negro que la noche.WEB-DLRip-AVC.mkv
    Format : Matroska
    Format version : Version 2
    File size : 1.81 GiB
    Duration : 1h 48mn
    Overall bit rate : 2 386 Kbps
    Encoded date : UTC 2014-12-09 02: 44: 05
    Writing application : XviD4PSP 6.0/54.29.105
    Writing library : XviD4PSP 6.0/54.29.105
    Video
    ID : 1
    Format : AVC
    Format/Info : Advanced Video Codec
    Format profile : High@L4.1
    Format settings, CABAC : Yes
    Format settings, ReFrames : 7 frames
    Codec ID : V_MPEG4/ISO/AVC
    Duration : 1h 48mn
    Bit rate : 2 000 Kbps
    Width : 1 024 pixels
    Height : 416 pixels
    Display aspect ratio : 2.40: 1
    Original display aspect ratio : 2.40: 1
    Frame rate mode : Constant
    Frame rate : 24.000 fps
    Color space : YUV
    Chroma subsampling : 4: 2: 0
    Bit depth : 8 bits
    Scan type : Progressive
    Bits/(Pixel*Frame) : 0.196
    Stream size : 1.49 GiB (82%)
    Writing library : x264 core 128 r2216M 198a7ea
    Encoding settings : cabac=1/ref=8/deblock=1: -3: -3/analyse=0x3: 0x133/me=umh/subme=8/psy=1/psy_rd=1.00: 0.20/mixed_ref=1/me_range=24/chroma_me=1/trellis=2/8x8dct=1/cqm=0/deadzone=21, 11/fast_pskip=1/chroma_qp_offset=-3/threads=4/lookahead_threads=1/sliced_threads=0/nr=0/decimate=1/interlaced=0/bluray_compat=0/constrained_intra=0/bframes=8/b_pyramid=1/b_adapt=2/b_bias=0/direct=3/weightb=1/open_gop=0/weightp=2/keyint=240/keyint_min=24/scenecut=40/intra_refresh=0/rc_lookahead=40/rc=2pass/mbtree=1/bitrate=2000/ratetol=1.0/qcomp=0.60/qpmin=0/qpmax=69/qpstep=8/cplxblur=20.0/qblur=0.5/ip_ratio=1.40/aq=1: 1.00
    Language : English
    Default : Yes
    Forced : No
    _STATISTICS_TAGS : BPS DURATION NUMBER_OF_FRAMES NUMBER_OF_BYTES
    DURATION : 01: 48: 51.542000000
    NUMBER_OF_FRAMES : 156757
    NUMBER_OF_BYTES : 2857387070
    _STATISTICS_WRITING_APP : mkvmerge v7.3.0 (;Nouages;) 64bit built on Oct 22 2014 18: 53: 34
    _STATISTICS_WRITING_DATE_UTC : 2014-12-09 02: 44: 05
    Audio
    ID : 2
    Format : AC-3
    Format/Info : Audio Coding 3
    Mode extension : CM (complete main)
    Format settings, Endianness : Big
    Codec ID : A_AC3
    Duration : 1h 48mn
    Bit rate mode : Constant
    Bit rate : 384 Kbps
    Channel(s) : 6 channels
    Channel positions : Front: L C R, Side: L R, LFE
    Sampling rate : 48.0 KHz
    Bit depth : 16 bits
    Compression mode : Lossy
    Delay relative to video : 27ms
    Stream size : 299 MiB (16%)
    Language : Russian
    Default : Yes
    Forced : No
    _STATISTICS_TAGS : BPS DURATION NUMBER_OF_FRAMES NUMBER_OF_BYTES
    DURATION : 01: 48: 51.552000000
    NUMBER_OF_FRAMES : 204111
    NUMBER_OF_BYTES : 313514496
    _STATISTICS_WRITING_APP : mkvmerge v7.3.0 (;Nouages;) 64bit built on Oct 22 2014 18: 53: 34
    _STATISTICS_WRITING_DATE_UTC : 2014-12-09 02: 44: 05

    Релиз подготовил:

    Онлайн видео Темнее ночи


    Размер скачиваемого торрента: 1.81 GB (1948376500 Bytes)

    Темнее ночи/Mas negro que la noche (2014) WEB-DLRip-AVC | iTunes
    загрузка...
    Рейтинг →
     (голосов: 1, оценка 4/5, голосовать можно 1 раз )

    Другие торренты по теме:

  • Темнее ночи (2014) DVDRip лицензия
  • Темнее ночи / Ms negro que la noche (2014) WEBRip 720p | Чистый звук скачать через торрент бесплатно
  • Темнее ночи / Mаs negro que la noche скачать через торрент бесплатно


    • Комментарии (0):

      Информация

      Информация

        Посетители, находящиеся в группе Гости, не могут оставлять комментарии в данной новости.

        ↓ Меню



        ↓ Опрос

        А Вы добавили сайт в закладки?
        Да
        Не


        Top 10 за месяц (Фильмы)