.
Авторизация | Регистрация
» » Снайпер / American Sniper (2014) BDRip-AVC | D, P, A скачать торрент бесплатно




    Снайпер / American Sniper (2014) BDRip-AVC | D, P, A скачать торрент бесплатно

    Опубликовал: Админ | Дата: 21-05-2015, 18:01 | Просмотров: 82



    Детально о кино
    Русское название: Снайпер/Американский снайпер
    Русское название в мировом прокате: American Sniper
    Создали в: 2014
    Категория жанра: боевик, драма, военный, биография
    Главный режиссер: Клинт Иствуд

    Актеры
    Брэдли Купер, Сиенна Миллер, Кайл Галлнер, Бен Рид, Элиз Робертсон, Люк Саншайн, Трой Винсент, Брэндон Сальгадо, Кейр О’Доннелл, Марне Паттерсон


    Сюжет фильма
    Экранизация мемуаров морского пехотинца из Техаса Криса Кайла, который служил снайпером в Ираке и стал рекордсменом по числу убитых солдат противника, за что иракцы прозвали его дьяволом. Помимо описания военных действий, книга состоит из отрывков воспоминаний жены Криса, ставшей свидетельницей того, как росла привязанность мужа к его соратникам и войне.



    Снималось в: США/Warner Bros., Village Roadshow Pictures, Mad Chance Productions
    Время просмотра: 02: 12: 39
    Перевод текста: Профессиональный (полное дублирование)- Лицензия
    Профессиональный (многоголосый, закадровый)- Gears Media
    Авторский (одноголосый, закадровый)- В.Котов

    Файл
    Качество фильма: BDRip-AVC
    Кодек для видео: MKV
    Информация о видео: MPEG4/AVC, 1656 Кбит/сек, 1024х426 (2.40: 1), 23.976 кадра/сек
    Информация о звуке 1: AC3, 6 каналов, 448 Кбит/сек | Русский - Лицензия
    Информация о звуке 2: AC3, 2 канала, 256 Кбит/сек | Русский - Gears Media
    Информация о звуке 3: AC3, 6 каналов, 448 Кбит/сек | Русский - В.Котов (не нормативная лексика)
    Информация о звуке 4: AC3, 2 канала, 192 Кбит/сек | Украинский - iTunes
    Информация о звуке 5: AC3, 6 каналов, 448 Кбит/сек | Английский
    Субтитры: Русские (Forced, Full), украинские (Forced, Full), английские (Full, SDH)
    Навигация по главам: Есть

    MediaInfo:
    Общее
    Уникальный идентификатор : 195526863030910723411731500892234210652 (0x93191AA2A640AC6D821EA4B04BEC5D5C)
    Полное имя : American Sniper. (2014) BDRip-AVC.mkv
    Формат : Matroska
    Версия формата : Version 2
    Размер файла : 3, 25 Гбайт
    Продолжительность : 2 ч. 12 м.
    Общий поток : 3511 Кбит/сек
    Название фильма : American Sniper. 2014
    Дата кодирования : UTC 2015-05-21 09: 49: 03
    Программа кодирования : mkvmerge v5.8.0 (;No Sleep/Pillow;) built on Sep 2 2012 15: 37: 04
    Библиотека кодирования : libebml v1.2.3 + libmatroska v1.3.0

    Видео
    Идентификатор : 1
    Формат : AVC
    Формат/Информация : Advanced Video Codec
    Профиль формата : High@L4.1
    Параметр CABAC формата : Да
    Параметр ReFrames формата : 10 кадров
    Идентификатор кодека : V_MPEG4/ISO/AVC
    Продолжительность : 2 ч. 12 м.
    Битрейт : 1649 Кбит/сек
    Ширина : 1024 пикселя
    Высота : 426 пикселей
    Соотношение сторон : 2, 40: 1
    Режим частоты кадров : Постоянный
    Частота кадров : 23, 976 кадра/сек
    Цветовое пространство : YUV
    Субдискретизация насыщенности : 4: 2: 0
    Битовая глубина : 8 бит
    Тип развёртки : Прогрессивная
    Бит/(Пиксели*Кадры) : 0.158
    Размер потока : 1, 53 Гбайт (47%)
    Заголовок : BuR
    Библиотека кодирования : x264 core 146 r2538 121396c
    Настройки программы : cabac=1/ref=10/deblock=1: -2: -2/analyse=0x3: 0x133/me=umh/subme=11/psy=1/psy_rd=1.00: 0.15/mixed_ref=1/me_range=32/chroma_me=1/trellis=2/8x8dct=1/cqm=0/deadzone=21, 11/fast_pskip=0/chroma_qp_offset=-3/threads=6/lookahead_threads=1/sliced_threads=0/nr=0/decimate=1/interlaced=0/bluray_compat=0/constrained_intra=0/bframes=9/b_pyramid=2/b_adapt=2/b_bias=0/direct=3/weightb=1/open_gop=0/weightp=2/keyint=240/keyint_min=23/scenecut=40/intra_refresh=0/rc=crf/mbtree=0/crf=17.6/qcomp=0.70/qpmin=0/qpmax=69/qpstep=4/ip_ratio=1.40/pb_ratio=1.30/aq=2: 0.85
    Язык : English
    Default : Да
    Forced : Нет

    Аудио #1
    Идентификатор : 2
    Формат : AC-3
    Формат/Информация : Audio Coding 3
    Расширение режима : CM (complete main)
    Параметр Endianness формата : Big
    Идентификатор кодека : A_AC3
    Продолжительность : 2 ч. 12 м.
    Вид битрейта : Постоянный
    Битрейт : 448 Кбит/сек
    Каналы : 6 каналов
    Расположение каналов : Front: L C R, Side: L R, LFE
    Частота : 48, 0 КГц
    Битовая глубина : 16 бит
    Метод сжатия : С потерями
    Размер потока : 425 Мбайт (13%)
    Заголовок : DUB | Blu-Ray CEE
    Язык : Russian
    Default : Да
    Forced : Нет

    Аудио #2
    Идентификатор : 3
    Формат : AC-3
    Формат/Информация : Audio Coding 3
    Расширение режима : CM (complete main)
    Параметр Endianness формата : Big
    Идентификатор кодека : A_AC3
    Продолжительность : 2 ч. 12 м.
    Вид битрейта : Постоянный
    Битрейт : 256 Кбит/сек
    Каналы : 2 канала
    Расположение каналов : Front: L R
    Частота : 48, 0 КГц
    Битовая глубина : 16 бит
    Метод сжатия : С потерями
    Размер потока : 243 Мбайт (7%)
    Заголовок : MVO | Gears Media
    Язык : Russian
    Default : Нет
    Forced : Нет

    Аудио #3
    Идентификатор : 4
    Формат : AC-3
    Формат/Информация : Audio Coding 3
    Расширение режима : CM (complete main)
    Параметр Endianness формата : Big
    Идентификатор кодека : A_AC3
    Продолжительность : 2 ч. 12 м.
    Вид битрейта : Постоянный
    Битрейт : 448 Кбит/сек
    Каналы : 6 каналов
    Расположение каналов : Front: L C R, Side: L R, LFE
    Частота : 48, 0 КГц
    Битовая глубина : 16 бит
    Метод сжатия : С потерями
    Размер потока : 425 Мбайт (13%)
    Заголовок : A | В.Котов - не нормативная лексика
    Язык : Russian
    Default : Нет
    Forced : Нет

    Аудио #4
    Идентификатор : 5
    Формат : AC-3
    Формат/Информация : Audio Coding 3
    Расширение режима : CM (complete main)
    Параметр Endianness формата : Big
    Идентификатор кодека : A_AC3
    Продолжительность : 2 ч. 12 м.
    Вид битрейта : Постоянный
    Битрейт : 192 Кбит/сек
    Каналы : 2 канала
    Расположение каналов : Front: L R
    Частота : 48, 0 КГц
    Битовая глубина : 16 бит
    Метод сжатия : С потерями
    Размер потока : 182 Мбайт (5%)
    Заголовок : D | iTunes
    Язык : Ukrainian
    Default : Нет
    Forced : Нет

    Аудио #5
    Идентификатор : 6
    Формат : AC-3
    Формат/Информация : Audio Coding 3
    Расширение режима : CM (complete main)
    Параметр Endianness формата : Big
    Идентификатор кодека : A_AC3
    Продолжительность : 2 ч. 12 м.
    Вид битрейта : Постоянный
    Битрейт : 448 Кбит/сек
    Каналы : 6 каналов
    Расположение каналов : Front: L C R, Side: L R, LFE
    Частота : 48, 0 КГц
    Битовая глубина : 16 бит
    Метод сжатия : С потерями
    Размер потока : 425 Мбайт (13%)
    Заголовок : Original
    Язык : English
    Default : Нет
    Forced : Нет

    Текст #1
    Идентификатор : 7
    Формат : UTF-8
    Идентификатор кодека : S_TEXT/UTF8
    Идентификатор кодека/Информация : UTF-8 Plain Text
    Заголовок : Forced
    Язык : Russian
    Default : Да
    Forced : Нет

    Текст #2
    Идентификатор : 8
    Формат : UTF-8
    Идентификатор кодека : S_TEXT/UTF8
    Идентификатор кодека/Информация : UTF-8 Plain Text
    Заголовок : Full
    Язык : Russian
    Default : Нет
    Forced : Нет

    Текст #3
    Идентификатор : 9
    Формат : UTF-8
    Идентификатор кодека : S_TEXT/UTF8
    Идентификатор кодека/Информация : UTF-8 Plain Text
    Заголовок : Forced
    Язык : Ukrainian
    Default : Нет
    Forced : Нет

    Текст #4
    Идентификатор : 10
    Формат : UTF-8
    Идентификатор кодека : S_TEXT/UTF8
    Идентификатор кодека/Информация : UTF-8 Plain Text
    Заголовок : Full
    Язык : Ukrainian
    Default : Нет
    Forced : Нет

    Текст #5
    Идентификатор : 11
    Формат : UTF-8
    Идентификатор кодека : S_TEXT/UTF8
    Идентификатор кодека/Информация : UTF-8 Plain Text
    Заголовок : Full
    Язык : English
    Default : Нет
    Forced : Нет

    Текст #6
    Идентификатор : 12
    Формат : UTF-8
    Идентификатор кодека : S_TEXT/UTF8
    Идентификатор кодека/Информация : UTF-8 Plain Text
    Заголовок : SDH
    Язык : English
    Default : Нет
    Forced : Нет

    Меню
    00: 00: 00.000 : en: Chapter 01
    00: 10: 15.197 : en: Chapter 02
    00: 18: 56.635 : en: Chapter 03
    00: 28: 27.539 : en: Chapter 04
    00: 39: 04.383 : en: Chapter 05
    00: 50: 57.387 : en: Chapter 06
    01: 00: 06.686 : en: Chapter 07
    01: 07: 56.197 : en: Chapter 08
    01: 28: 43.943 : en: Chapter 09
    01: 37: 24.713 : en: Chapter 10
    01: 45: 57.017 : en: Chapter 11
    01: 54: 43.960 : en: Chapter 12
    02: 04: 13.362 : en: Chapter 13
    _________________________________________

    x264 info: frame I: 1919 Avg QP: 16.39 size: 59518
    x264 info: frame P: 43450 Avg QP: 18.31 size: 18493
    x264 info: frame B: 145477 Avg QP: 21.29 size: 5428
    x264 info: consecutive B-frames: 2.2% 2.9% 7.9% 34.0% 19.4% 21.9% 5.4% 4.7% 1.0% 0.7%



    Релиз подготовил:

    Онлайн видео Снайпер


    Размер скачиваемого торрента: 3.25 GB (3493438268 Bytes)

    Снайпер/American Sniper (2014) BDRip-AVC | D, P, A
    загрузка...
    Рейтинг →
     (голосов: 1, оценка 3/5, голосовать можно 1 раз )

    Другие торренты по теме:

  • Снайпер / Sniper (1992) DVDRip-AVC | P торрент скачать бесплатно
  • OST - Снайпер: Воин-призрак / Sniper: Ghost Warrior 2 (2013) MP3 торрент скачать бесплатно
  • Джеймс Хедли Чейз - Снайпер (2013) MP3 торрент скачать бесплатно
  • Ночные Снайперы - Коллекция (1998-2012) MP3 от MediaClub торрент скачать бесплатно
  • Снайпер-2. Тунгус (2012) HDTVRip-AVC торрент скачать бесплатно
  • Снайпер-2. Тунгус (2012) HDTVRip 720p торрент скачать бесплатно
  • Снайпер-2. Тунгус (2012) HDTVRip от Files-X торрент скачать бесплатно
  • Снайпер 4 / Sniper: Reloaded (2011) BDRip от Youtracker торрент скачать бесплатно


    • Комментарии (0):

      Информация

      Информация

        Посетители, находящиеся в группе Гости, не могут оставлять комментарии в данной новости.

        ↓ Меню



        ↓ Опрос

        А Вы добавили сайт в закладки?
        Да
        Не


        Top 10 за неделю (Фильмы)