.
Авторизация | Регистрация
» » Царство / Reign (2013-2015) WEB-DLRip от Generalfilm | КПК | Amedia скачать торрент бесплатно




    Царство / Reign (2013-2015) WEB-DLRip от Generalfilm | КПК | Amedia скачать торрент бесплатно

    Опубликовал: Админ | Дата: 22-05-2015, 13:03 | Просмотров: 101


    Детально о кино
    Русское название: Царство
    Русское название в мировом прокате: Reign
    Создали в: 2013
    Категория жанра: Фэнтези, драма
    Главный режиссер: Мэттью Хатингс, Брэд Силберлинг

    Актеры
    Аделаида Кейн, Тоби Регбо, Торранс Кумбс, Меган Фоллоуз, Алан Ван Спрэнг, Селина Синден, Кэйтлин Стэйси, Анна Попплуэлл

    Сюжет фильма

    Действия разворачиваются в период юности Королевы Шотландии Марии Стюарт, которая должна стать супругой принца Франциска, сына короля Генриха второго, чтобы укрепить политический союз между державами. Мария прибывает во Францию в сопровождении своих фрейлин и знакомится с будущим супругом. Принц явно не заинтересован в этом союзе и всячески пытается ему помешать, так как уже увлечен одной из дворцовых красавиц. Помимо всех интриг и заговоров на политическом уровне со стороны противников свадьбы, незаконнорожденный сын Короля, Бэш, также принимает меры, чтобы разбить пару помолвленных - Марии и Франциска.

    Снималось в: США
    Киностудия: CBS Television Studios, World 2000 Entertainment, Octagon Films
    Время просмотра: 44 х 00: 42: 00
    Перевод текста: Профессиональный (многоголосый, закадровый) Amedia
    Файл
    Тип видео: MP4
    Качество фильма: WEB-DLRip | КПК
    Информация о видео: MPEG-4 AVC (x264), 640x360, ~500 kbps, 23.976 fps
    Информация о звуке: AAC LC, 48.0 KHz, 2 ch, 128 Kbps
    Субтитры: Нет
    Семпл
    Скриншоты

    MI
    Complete name : E: KinoCarstvo.AVC.KPK.GeneralfilmCarstvo.S02.2014-2015.AVC.KPK.Amedia.GeneralfilmCarstvo.s02e09.2014.AVC.KPK.Amedia.Generalfilm.mp4
    Format : MPEG-4
    Format profile : Base Media
    Codec ID : isom
    File size : 185 MiB
    Duration : 40mn 58s
    Overall bit rate mode : Variable
    Overall bit rate : 631 Kbps
    Encoded date : UTC 2014-12-17 16: 19: 58
    Tagged date : UTC 2014-12-17 16: 19: 58
    Video
    ID : 1
    Format : AVC
    Format/Info : Advanced Video Codec
    Format profile : High@L4.1
    Format settings, CABAC : Yes
    Format settings, ReFrames : 8 frames
    Codec ID : avc1
    Codec ID/Info : Advanced Video Coding
    Duration : 40mn 58s
    Bit rate : 500 Kbps
    Maximum bit rate : 4 517 Kbps
    Width : 640 pixels
    Height : 360 pixels
    Display aspect ratio : 16: 9
    Frame rate mode : Constant
    Frame rate : 25.000 fps
    Color space : YUV
    Chroma subsampling : 4: 2: 0
    Bit depth : 8 bits
    Scan type : Progressive
    Bits/(Pixel*Frame) : 0.087
    Stream size : 146 MiB (79%)
    Writing library : x264 core 130 r2273 b3065e6
    Encoding settings : cabac=1/ref=8/deblock=1: -2: -2/analyse=0x3: 0x133/me=umh/subme=10/psy=1/psy_rd=1.00: 0.00/mixed_ref=1/me_range=24/chroma_me=1/trellis=2/8x8dct=1/cqm=0/deadzone=21, 11/fast_pskip=1/chroma_qp_offset=-2/threads=12/lookahead_threads=2/sliced_threads=0/nr=0/decimate=0/interlaced=0/bluray_compat=0/constrained_intra=0/bframes=8/b_pyramid=2/b_adapt=2/b_bias=0/direct=3/weightb=1/open_gop=0/weightp=2/keyint=250/keyint_min=126/scenecut=40/intra_refresh=0/rc_lookahead=40/rc=2pass/mbtree=1/bitrate=500/ratetol=1.0/qcomp=0.60/qpmin=0/qpmax=69/qpstep=4/cplxblur=20.0/qblur=0.5/ip_ratio=1.40/aq=1: 1.00
    Encoded date : UTC 2014-12-17 16: 19: 58
    Tagged date : UTC 2014-12-17 16: 20: 03
    Audio
    ID : 2
    Format : AAC
    Format/Info : Advanced Audio Codec
    Format profile : LC
    Codec ID : 40
    Duration : 40mn 58s
    Bit rate mode : Variable
    Bit rate : 128 Kbps
    Maximum bit rate : 152 Kbps
    Channel count : 2 channels
    Channel positions : Front: L R
    Sampling rate : 48.0 KHz
    Compression mode : Lossy
    Delay relative to video : 120ms
    Stream size : 37.4 MiB (20%)
    Encoded date : UTC 2014-12-17 16: 20: 02
    Tagged date : UTC 2014-12-17 16: 20: 03

    Релиз подготовил:
    Залил: toys_watch

    Онлайн видео Царство


    Размер скачиваемого торрента: 7.96 GB (8550431460 Bytes)

    Царство/Reign (2013-2015) WEB-DLRip от Generalfilm | КПК | Amedia
    загрузка...
    Рейтинг →
     (голосов: 1, оценка 5/5, голосовать можно 1 раз )

    Другие торренты по теме:

  • Царство / Kingdom (2012) HDTVRip | AniFilm торрент скачать бесплатно
  • Орбини Мавро - Славянское царство (2010) DjVu, PDF торрент скачать бесплатно
  • OST - Царство небесное / Kingdom Of Heaven Soundtrack (2007) MP3 торрент скачать бесплатно
  • Царство кошмара: В конце... / Nightmare Realm: In the End... CE (2012) PC торрент скачать бесплатно
  • Воюющие царства / The warring state (2011) BDRip 720p от KinoFan | L2 торрент скачать бесплатно
  • Гербовникъ - дворянскихъ родовъ Царства Польскаго (1853) PDF торрент скачать бесплатно
  • Тор: Царство тьмы / Thor: The Dark World (2013) HD | Трейлер торрент скачать бесплатно
  • Теория заговора: Легендарное царство (2011) TVRip торрент скачать бесплатно


    • Комментарии (0):

      Информация

      Информация

        Посетители, находящиеся в группе Гости, не могут оставлять комментарии в данной новости.

        ↓ Меню



        ↓ Опрос

        А Вы добавили сайт в закладки?
        Да
        Не


        Top 10 за неделю (Фильмы)