.
Авторизация | Регистрация
Хочешь лучшие торренты? Добавь свой email!
Добавить
» » Путь Карлито / Carlitos Way (1993) BDRip 720p от HQ-ViDEO | P, P2, A торрент скачать бесплатно




    Путь Карлито / Carlitos Way (1993) BDRip 720p от HQ-ViDEO | P, P2, A торрент скачать бесплатно

    Опубликовал: Админ | Дата: 22-05-2015, 13:03 | Просмотров: 158

    Путь Карлито/Carlito;s Way (1993) BDRip 720p
    Релиз от HQ-ViDEO

    Детально о кино
    Русское название: Путь Карлито
    Русское название в мировом прокате: Carlito;s Way
    Создали в: 1993
    Категория жанра: драма, криминал
    Главный режиссер: Брайан Де Пальма /Brian De Palma/

    Актеры
    Аль Пачино /Al Pacino/, Шон Пенн /Sean Penn/, Пенелопи Энн Миллер /Penelope Ann Miller/, Джон Легуизамо /John Leguizamo/, Ингрид Роджерс /Ingrid Rogers/, Луис Гусман /Luis Guzman/, Вигго Мортенсен /Viggo Mortensen/...

    Сюжет фильма

    70-е годы. Крупный наркоделец Карлито Бриганте вышел из тюрьмы, где отбыл пять лет. Теперь, возвращаясь в испанский квартал Нью-Йорка к любимой женщине, он хочет все бросить и начать честную жизнь. Однако криминальное прошлое и просьба близкого друга, адвоката Клейнфилда, ввязавшегося в опасную авантюру, неудержимо тянут Карлито в пучину гибели...

    Снималось в: США
    Время просмотра: 02: 24: 09
    Перевод текста: Русский профессиональный, многоголосый + Оригинальная, английская дорожка +Русский профессиональный, многоголосый (Позитив-Мультимедиа) +Русский профессиональный, многоголосый (R5) +Авторский, одноголосый (А. Гаврилов) +Профессиональный, двухголосый (П.Гланц и И.Королева) +Авторский, одноголосый перевод (Ю. Живов)
    Файл
    Кодек для видео: MKV, H.264
    Качество фильма: BDRip 720p (Source: Blu-ray Disc)
    Информация о видео: 4858 kbps; 0.291 bit/pixel; 1280 x 544; 2.35: 1; 23.976 fps
    Информация о звуке #1: AC3 Dolby Digital; 384.00 kbps, 6 Ch - MVO
    Информация о звуке #2: AC3 Dolby Digital; 384.00 kbps, 6 Ch - ENG
    Информация о звуке #3: AC3 Dolby Digital; 384.00 kbps, 6 Ch - MVO Pozitiv
    Информация о звуке #4: AC3 Dolby Digital; 384.00 kbps, 6 Ch - MVO R5
    Информация о звуке #5: AC3 Dolby Digital; 384.00 kbps, 6 Ch - AVO Gavrilov
    Информация о звуке #6: AC3 Dolby Digital; 384.00 kbps, 6 Ch - DVO Glanc Koroleva
    Информация о звуке #7: AC3 Dolby Digital; 384.00 kbps, 6 Ch - AVO Zhivov
    Субтитры: Русские, Английские.
    Субтитры: Русские (2 вида), Английские (полные, SDH).(Отдельно)
    Размер скачиваемого торрента: 7.75 GB
    SAMPLE/скачать с Яндекс Диск
    MediaInfo

    General
    Complete name : Put.Karlito.1993.BDRip.h264.720p.AC3.-HQ-ViDEO.mkv
    Format : Matroska
    File size : 7.75 GiB
    Duration : 2h 24mn
    Overall bit rate : 7 699 Kbps
    Movie name : Carlito;s Way (1993)
    Encoded date : UTC 2010-06-08 06: 41: 25
    Writing application : mkvmerge v3.3.0 (;Language;) built on Mar 24 2010 14: 59: 24
    Writing library : libebml v0.8.0 + libmatroska v0.9.0
    Video
    ID : 1
    Format : AVC
    Format/Info : Advanced Video Codec
    Format profile : High@L4.1
    Format settings, CABAC : Yes
    Format settings, ReFrames : 6 frames
    Muxing mode : Container profile=Unknown@4.1
    Codec ID : V_MPEG4/ISO/AVC
    Duration : 2h 24mn
    Bit rate : 4 858 Kbps
    Width : 1 280 pixels
    Height : 544 pixels
    Display aspect ratio : 2.35: 1
    Frame rate : 23.976 fps
    Resolution : 8 bits
    Colorimetry : 4: 2: 0
    Scan type : Progressive
    Bits/(Pixel*Frame) : 0.291
    Stream size : 4.89 GiB (63%)
    Title : Encoded by GYN
    Audio #1
    ID : 2
    Format : AC-3
    Format/Info : Audio Coding 3
    Codec ID : A_AC3
    Duration : 2h 24mn
    Bit rate mode : Constant
    Bit rate : 384 Kbps
    Channel(s) : 6 channels
    Channel positions : Front: L C R, Surround: L R, LFE
    Sampling rate : 48.0 KHz
    Stream size : 396 MiB (5%)
    Title : MVO
    Language : Russian
    Audio #2
    ID : 3
    Format : AC-3
    Format/Info : Audio Coding 3
    Codec ID : A_AC3
    Duration : 2h 24mn
    Bit rate mode : Constant
    Bit rate : 384 Kbps
    Channel(s) : 6 channels
    Channel positions : Front: L C R, Surround: L R, LFE
    Sampling rate : 48.0 KHz
    Stream size : 396 MiB (5%)
    Title : Original
    Language : English
    Audio #3
    ID : 4
    Format : AC-3
    Format/Info : Audio Coding 3
    Codec ID : A_AC3
    Duration : 2h 24mn
    Bit rate mode : Constant
    Bit rate : 384 Kbps
    Channel(s) : 6 channels
    Channel positions : Front: L C R, Surround: L R, LFE
    Sampling rate : 48.0 KHz
    Stream size : 396 MiB (5%)
    Title : MVO
    Language : Russian
    Audio #4
    ID : 5
    Format : AC-3
    Format/Info : Audio Coding 3
    Codec ID : A_AC3
    Duration : 2h 24mn
    Bit rate mode : Constant
    Bit rate : 384 Kbps
    Channel(s) : 6 channels
    Channel positions : Front: L C R, Surround: L R, LFE
    Sampling rate : 48.0 KHz
    Stream size : 396 MiB (5%)
    Title : MVO
    Language : Russian
    Audio #5
    ID : 6
    Format : AC-3
    Format/Info : Audio Coding 3
    Codec ID : A_AC3
    Duration : 2h 24mn
    Bit rate mode : Constant
    Bit rate : 384 Kbps
    Channel(s) : 6 channels
    Channel positions : Front: L C R, Surround: L R, LFE
    Sampling rate : 48.0 KHz
    Stream size : 396 MiB (5%)
    Title : AVO (Gavrilov)
    Language : Russian
    Audio #6
    ID : 7
    Format : AC-3
    Format/Info : Audio Coding 3
    Codec ID : A_AC3
    Duration : 2h 24mn
    Bit rate mode : Constant
    Bit rate : 384 Kbps
    Channel(s) : 6 channels
    Channel positions : Front: L C R, Surround: L R, LFE
    Sampling rate : 48.0 KHz
    Stream size : 396 MiB (5%)
    Title : AVO (Glanz)
    Language : Russian
    Audio #7
    ID : 8
    Format : AC-3
    Format/Info : Audio Coding 3
    Codec ID : A_AC3
    Duration : 2h 24mn
    Bit rate mode : Constant
    Bit rate : 384 Kbps
    Channel(s) : 6 channels
    Channel positions : Front: L C R, Surround: L R, LFE
    Sampling rate : 48.0 KHz
    Stream size : 396 MiB (5%)
    Title : AVO (Zhivov)
    Language : Russian
    Text #1
    ID : 9
    Format : UTF-8
    Codec ID : S_TEXT/UTF8
    Codec ID/Info : UTF-8 Plain Text
    Language : Russian
    Text #2
    ID : 10
    Format : UTF-8
    Codec ID : S_TEXT/UTF8
    Codec ID/Info : UTF-8 Plain Text
    Language : English





    Релиз подготовил: HQ-ViDEO
    Автор рипа: GYN

    Онлайн видео Путь Карлито


    Размер скачиваемого торрента: 7.75 GB (8325357102 Bytes)

    Путь Карлито/Carlitos Way (1993) BDRip 720p от HQ-ViDEO | P, P2, A
    загрузка...
    Рейтинг →
     (голосов: 1, оценка 4/5, голосовать можно 1 раз )

    Другие торренты по теме:

  • Путь Карлито / Carlitos Way (1993) BDRip 1080p
  • Путь Карлито / Carlitos Way (1993) HDDVD Remux 1080p от HDClub | P, P2, A
  • Путь Карлито / Carlitos Way (1993) HDRip-AVC от New-Team скачать через торрент бесплатно
  • Путь Карлито / Carlitos Way (1993) HDDVDRip-AVC от 0ptimus | P, P2, A скачать через торрент бесплатно
  • Путь Карлито / Carlitos Way (1998) BDRip от MediaClub | КПК
  • Путь Карлито / Carlitos Way (1993) HDRip от Scarabey | P
  • Путь Карлито / Carlitos Way (1993) BDRip 720p от NNNB | P, P2, A


    • Комментарии (0):

      Информация

      Информация

        Посетители, находящиеся в группе Гости, не могут оставлять комментарии в данной новости.

        ↓ Меню



        ↓ Опрос

        А Вы добавили сайт в закладки?
        Да
        Не


        Top 10 за месяц (Фильмы)