.
Авторизация | Регистрация
Хочешь лучшие торренты? Добавь свой email!
Добавить
» » Весенний поток (1940) SATRip от New-Team торрент скачать бесплатно




    Весенний поток (1940) SATRip от New-Team торрент скачать бесплатно

    Опубликовал: Админ | Дата: 23-05-2015, 03:07 | Просмотров: 107


    Снималось в: СССР
    Создали в: Союздетфильм
    Категория жанра: мелодрама
    Создали в: 1940
    Время просмотра: 01: 25: 19
    Перевод текста: Не требуется
    Субтитры подготовлены: нет
    Оригинальная аудиодорожка: русский
    Главный режиссер: Владимир Юренев

    Актеры

    Валентина Серова, Сергей Днепров, Михаил Астангов, Петр Савин, Наталия Садовская, Александр Зражевский, Надежда Кручинина, Борис Толмазов, Игорь Бут, Ирина Федотова...
    Описание:
    Воспитанница детского дома Надя Кулагина после окончания института приезжает работать в школу, где когда-то училась. После ее появления самый безнадежный ученик Димка Лопатин, которого даже хотели выгнать из школы, становится одним из лучших учеников и верным другом нового классного руководителя…



    Источник: DVB
    Качество фильма видео: SATRip
    Тип видео видео: AVI
    Виде: 640x480 (4: 3), 25 fps, XviD ~ 1085 kbps avg, 0.141 bit/pixel
    Информация о звуке: 48 kHz, MP3 2.0, 128 kbps
    Раздача от:
    MediaInfo

    Общее
    Полное имя : Vesenniy.potok.1940.SATRip-745_New-team_by_AVP_Studio.avi
    Формат : AVI
    Формат/Информация : Audio Video Interleave
    Размер файла : 746 Мбайт
    Продолжительность : 1 ч. 25 м.
    Общий поток : 1222 Кбит/сек
    Программа кодирования : VirtualDubModRus 1.5.10.2 (build 2542/release)
    Библиотека кодирования : VirtualDubMod build 2542/release
    Видео
    Идентификатор : 0
    Формат : MPEG-4 Visual
    Профиль формата : Advanced Simple@L5
    Параметр BVOP формата : 1
    Параметр QPel формата : Нет
    Параметр GMC формата : Без точки перехода
    Параметр матрицы формата : Выборочная
    Идентификатор кодека : XVID
    Идентификатор кодека/Подсказка : XviD
    Продолжительность : 1 ч. 25 м.
    Битрейт : 1085 Кбит/сек
    Ширина : 640 пикселей
    Высота : 480 пикселей
    Соотношение сторон : 4: 3
    Частота кадров : 25, 000 кадров/сек
    Цветовое пространство : YUV
    Субдискретизация насыщенности : 4: 2: 0
    Битовая глубина : 8 бит
    Тип развёртки : Прогрессивная
    Метод сжатия : С потерями
    Бит/(Пиксели*Кадры) : 0.141
    Размер потока : 662 Мбайт (89%)
    Библиотека кодирования : XviD 73
    Аудио
    Идентификатор : 1
    Формат : MPEG Audio
    Версия формата : Version 1
    Профиль формата : Layer 3
    Идентификатор кодека : 55
    Идентификатор кодека/Подсказка : MP3
    Продолжительность : 1 ч. 25 м.
    Вид битрейта : Постоянный
    Битрейт : 128 Кбит/сек
    Каналы : 2 канала
    Частота : 48, 0 КГц
    Метод сжатия : С потерями
    Размер потока : 78, 1 Мбайт (10%)
    Выравнивание : Соединение по промежуткам
    Продолжительность промежутка : 40 мс. (1, 00 видеокадр)
    Время предзагрузки промежутка : 504 мс.
    Библиотека кодирования : LAME3.99r
    Залил: AVPStudio

    Онлайн видео Весенний поток (1940) SATRip от New


    Размер скачиваемого торрента: 745.88 MB (782110720 Bytes)


    Весенний поток (1940) SATRip от New-Team
    загрузка...
    Рейтинг →
     (голосов: 1, оценка 5/5, голосовать можно 1 раз )

    Другие торренты по теме:

  • Весенний поток (1940) SATRip от New-Team скачать через торрент бесплатно


    • Комментарии (0):

      Информация

      Информация

        Посетители, находящиеся в группе Гости, не могут оставлять комментарии в данной новости.

        ↓ Меню



        ↓ Опрос

        А Вы добавили сайт в закладки?
        Да
        Не


        Top 10 за месяц (Фильмы)