.
Авторизация | Регистрация
Хочешь лучшие торренты? Добавь свой email!
Добавить




Кэрри / Carrie (1976) BDRip 720p | P, A торрент скачать бесплатно

Опубликовал: Админ | Дата: 23-05-2015, 03:08 | Просмотров: 160


Детально о кино
Русское название: Кэрри
Русское название в мировом прокате: Carrie
Создали в: 1976
Категория жанра: ужасы, триллер
Главный режиссер: Брайан Де Пальма/Brian De Palma/

Актеры
Сисси Спейсек/Sissy Spacek/ , Пайпер Лори/Piper Laurie/ , Эми Ирвинг/Amy Irving/ , Уильям Кэтт/William Katt/ , Джон Траволта/John Travolta/ , Нэнси Аллен/Nancy Allen/ , Бетти Бакли/Betty Buckley/ , П.Дж. Соулз/P.J. Soles/ , Присцилла Пойнтер/Priscilla Pointer/ , Сидни Лэссик/Sydney Lassick/

Сюжет фильма

Тихую, робкую и доверчивую Кэрри третируют и обижают в школе и дома. Ребенок, от природы добрый, становится замкнутым и мрачным.
В то же время девочка открывает в себе странные и страшные силы… А сверстники готовят очередную изощренную шутку над Кэрри, даже не подозревая, чем это для них закончится…

Снималось в: США
Киностудия: United Artists
Время просмотра: 01: 38: 10
Перевод текста:
Профессиональный (многоголосый, закадровый) -НТВ+
Профессиональный (многоголосый, закадровый) -Первый канал
Профессиональный (многоголосый, закадровый) -Варус-Видео
Авторский (одноголосый, закадровый) -Юрий Живов
Рип от DON!
Файл
Кодек для видео: H.264
Качество фильма: BDRip 720p
Информация о видео: 1280x694 at 23.976 fps, x264@L5.1, 2pass, ~4865 kbps avg
Информация о звуке#1: Russian: 48 kHz, AC3, 3/2 (L, C, R, l, r) + LFE ch, ~448.00 kbps avg |Многоголосый закадровый, НТВ+ |
Информация о звуке#2: Russian: 48 kHz, AC3, 2/0 (L, R) ch, ~192.00 kbps avg |Многоголосый закадровый, Первый канал |
Информация о звуке#3: Russian: 48 kHz, AC3, 2/0 (L, R) ch, ~192.00 kbps avg |Многоголосый закадровый, Варус-Видео |
Информация о звуке#4: Russian: 48 kHz, AC3, 3/2 (L, C, R, l, r) + LFE ch, ~448.00 kbps avg |Одноголосый закадровый, Юрий Живов |
Информация о звуке#5: English: 48 kHz, DTS, 3/2 (L, C, R, l, r) + LFE ch, ~1509.00 kbps avg |Оригинал|
Субтитры: Russian (Full), English (Full, SDH)
Скриншоты

MediaInfo
General
Complete name : Carrie.1976.720p.BluRay.4xRus.Eng.DON.mkv
Format : Matroska
Format version : Version 4/Version 2
File size : 5.25 GiB
Duration : 1h 38mn
Overall bit rate : 7 658 Kbps
Movie name : Carrie (1976)
Encoded date : UTC 2015-05-22 16: 09: 10
Writing application : mkvmerge v7.9.0 (;Birds;) 64bit
Writing library : libebml v1.3.1 + libmatroska v1.4.2
Video
ID : 1
Format : AVC
Format/Info : Advanced Video Codec
Format profile : High@L5.1
Format settings, CABAC : Yes
Format settings, ReFrames : 5 frames
Format settings, GOP : N=1
Codec ID : V_MPEG4/ISO/AVC
Duration : 1h 38mn
Bit rate : 4 865 Kbps
Width : 1 280 pixels
Height : 694 pixels
Display aspect ratio : 1.85: 1
Frame rate mode : Constant
Frame rate : 23.976 fps
Color space : YUV
Chroma subsampling : 4: 2: 0
Bit depth : 8 bits
Scan type : Progressive
Bits/(Pixel*Frame) : 0.228
Stream size : 3.23 GiB (62%)
Title : Carrie (1976)
Writing library : x264 core 65 r999M cc51047
Encoding settings : cabac=1/ref=5/deblock=1: -3: -3/analyse=0x3: 0x133/me=umh/subme=8/psy_rd=1.0: 1.0/mixed_ref=1/me_range=16/chroma_me=1/trellis=2/8x8dct=1/cqm=2/deadzone=21, 11/chroma_qp_offset=-4/threads=6/nr=0/decimate=1/mbaff=0/bframes=5/b_pyramid=1/b_adapt=2/b_bias=0/direct=3/wpredb=1/keyint=250/keyint_min=25/scenecut=40(pre)/rc=2pass/bitrate=4865/ratetol=1.0/qcomp=0.60/qpmin=10/qpmax=51/qpstep=4/cplxblur=20.0/qblur=0.5/ip_ratio=1.40/pb_ratio=1.30/aq=1: 1.10
Language : English
Default : Yes
Forced : No
Audio #1
ID : 2
Format : AC-3
Format/Info : Audio Coding 3
Mode extension : CM (complete main)
Format settings, Endianness : Big
Codec ID : A_AC3
Duration : 1h 38mn
Bit rate mode : Constant
Bit rate : 448 Kbps
Channel(s) : 6 channels
Channel positions : Front: L C R, Side: L R, LFE
Sampling rate : 48.0 KHz
Bit depth : 16 bits
Compression mode : Lossy
Stream size : 315 MiB (6%)
Title : AC3 5.1 ch @ 448 kbps - MVO (НТВ+)
Language : Russian
Default : Yes
Forced : No
Audio #2
ID : 3
Format : AC-3
Format/Info : Audio Coding 3
Mode extension : CM (complete main)
Format settings, Endianness : Big
Codec ID : A_AC3
Duration : 1h 38mn
Bit rate mode : Constant
Bit rate : 192 Kbps
Channel(s) : 2 channels
Channel positions : Front: L R
Sampling rate : 48.0 KHz
Bit depth : 16 bits
Compression mode : Lossy
Stream size : 135 MiB (3%)
Title : AC3 2.0 ch @ 192 kbps - MVO (Первый канал)
Language : Russian
Default : No
Forced : No
Audio #3
ID : 4
Format : AC-3
Format/Info : Audio Coding 3
Mode extension : CM (complete main)
Format settings, Endianness : Big
Codec ID : A_AC3
Duration : 1h 38mn
Bit rate mode : Constant
Bit rate : 192 Kbps
Channel(s) : 2 channels
Channel positions : Front: L R
Sampling rate : 48.0 KHz
Bit depth : 16 bits
Compression mode : Lossy
Stream size : 135 MiB (3%)
Title : AC3 2.0 ch @ 192 kbps - MVO (Варус-Видео)
Language : Russian
Default : No
Forced : No
Audio #4
ID : 5
Format : AC-3
Format/Info : Audio Coding 3
Mode extension : CM (complete main)
Format settings, Endianness : Big
Codec ID : A_AC3
Duration : 1h 38mn
Bit rate mode : Constant
Bit rate : 448 Kbps
Channel(s) : 6 channels
Channel positions : Front: L C R, Side: L R, LFE
Sampling rate : 48.0 KHz
Bit depth : 16 bits
Compression mode : Lossy
Stream size : 315 MiB (6%)
Title : AC3 5.1 ch @ 448 kbps - AVO (Ю. Живов)
Language : Russian
Default : No
Forced : No
Audio #5
ID : 6
Format : DTS
Format/Info : Digital Theater Systems
Mode : 16
Format settings, Endianness : Big
Codec ID : A_DTS
Duration : 1h 38mn
Bit rate mode : Constant
Bit rate : 1 509 Kbps
Channel(s) : 6 channels
Channel positions : Front: L C R, Side: L R, LFE
Sampling rate : 48.0 KHz
Bit depth : 24 bits
Compression mode : Lossy
Stream size : 1.03 GiB (20%)
Title : DTS 5.1 ch @ 1509 kbps
Language : English
Default : No
Forced : No
Text #1
ID : 7
Format : UTF-8
Codec ID : S_TEXT/UTF8
Codec ID/Info : UTF-8 Plain Text
Title : Full
Language : Russian
Default : No
Forced : No
Text #2
ID : 8
Format : UTF-8
Codec ID : S_TEXT/UTF8
Codec ID/Info : UTF-8 Plain Text
Title : Full
Language : English
Default : No
Forced : No
Text #3
ID : 9
Format : UTF-8
Codec ID : S_TEXT/UTF8
Codec ID/Info : UTF-8 Plain Text
Title : SDH
Language : English
Default : No
Forced : No
Menu
00: 00: 00.000 : en: The Shower
00: 06: 44.987 : en: It;s Carrie
00: 09: 15.346 : en: Creepy Carie
00: 09: 52.383 : en: Mrs. White visits
00: 12: 27.455 : en: Carrie;s sins
00: 16: 42.418 : en: The Mirror
00: 19: 07.604 : en: Beautiful Poem
00: 21: 29.788 : en: The Punishment
00: 25: 34.866 : en: 1-2-3-4
00: 26: 49.566 : en: Telekinesis
00: 29: 19.382 : en: The Favour
00: 30: 08.973 : en: Heatwave
00: 33: 03.523 : en: Billy
00: 35: 48.271 : en: The Pep Talk
00: 39: 06.177 : en: Why?
00: 41: 32.740 : en: Acceptance
00: 45: 02.866 : en: No! No! No!
00: 48: 28.572 : en: The Bucket
00: 49: 42.396 : en: Everbody;s Talkin;
00: 53: 03.763 : en: All Gonna Laugh
00: 55: 32.287 : en: Are You Scared?
00: 58: 46.064 : en: First dance
01: 05: 30.426 : en: Election
01: 07: 58.199 : en: Switcheroo
01: 10: 13.626 : en: King Queen
01: 13: 14.306 : en: Blood
01: 16: 44.850 : en: Revenge
01: 20: 49.970 : en: Road Rage
01: 21: 34.848 : en: The Devil
01: 28: 36.227 : en: Sacrifice
01: 33: 41.699 : en: The Final Grab
01: 36: 50.721 : en: End Credits
Дополнительная информация
Цитата Кто-тописал:
Сохранены и подписаны оригинальные главы как на Blu-ray.

Размер скачиваемого торрента: 5.25 GB (5638893700 Bytes)

Кэрри/Carrie (1976) BDRip 720p | P, A
загрузка...
Рейтинг →
 (голосов: 1, оценка 5/5, голосовать можно 1 раз )

Другие торренты по теме:

  • Дневники Кэрри / The Carrie Diaries (2013) WEB-DL | NewStudio
  • Дневники Кэрри / The Carrie Diaries ( 2013) WEB-DLRip | L2
  • Кэрри Гринберг, Кэтрин Коути - Длинная Серебряная Ложка (2010) FB2
  • Кэрри / Carrie (1976) BDRip 1080p от New-Team скачать через торрент бесплатно
  • Дневники Кэрри / The Carrie Diaries (2013) WEB-DL 720p | Sub
  • Дневники Кэрри / The Carrie Diaries ( 2013) WEB-DLRip | L2
  • Кэрри (2013)
  • Кэрри / Carrie (1976) HDRip от Scarabey | Р


    • Комментарии (0):

      Информация

      Информация

        Посетители, находящиеся в группе Гости, не могут оставлять комментарии в данной новости.

        ↓ Меню



        ↓ Опрос

        А Вы добавили сайт в закладки?
        Да
        Не


        Top 10 за месяц (Фильмы)