.
Авторизация | Регистрация
Хочешь лучшие торренты? Добавь свой email!
Добавить
» » Kingsman: Секретная служба / Kingsman: The Secret Service (2014) BDRip 720p от KinoGadget | iPad торрент скачать бесплатно




    Kingsman: Секретная служба / Kingsman: The Secret Service (2014) BDRip 720p от KinoGadget | iPad торрент скачать бесплатно

    Опубликовал: Админ | Дата: 23-05-2015, 21:03 | Просмотров: 148


    Создали в: 2014
    Снималось в: Великобритания
    Категория жанра: боевик, комедия, криминал, приключения
    Время просмотра: 02: 08: 37
    Перевод текста: Дублированный
    Главный режиссер: Мэттью Вон

    Актеры
    Тэрон Эджертон, Колин Фёрт, Сэмюэл Л. Джексон, Марк Стронг, Софи Куксон, Майкл Кейн, София Бутелла, Саманта Янус, Джофф Белл, Марк Хэмилл, Джек Девенпорт, Эдвард Холкрофт, Ханна Альстрём, Бьёрн Флоберг, Джоанна Тейлор, Ричард Брэйк, Кори Джонсон, Адриан Куинтон, Джонно Дэвис, Алекс Николов
    Описание: Эггси — молодой парень, который прошел службу в морской пехоте и имеет очень высокий уровень интеллекта. Он мог бы добиться многого, но выбрал другой путь и стал мелким преступником. Однажды он знакомится с Гарри Хартом, которому его отец когда-то спас жизнь. Этот человек решил сделать все возможное, чтобы сделать жизнь Эггси лучше и открыть для него новые возможности.
    Гарри рассказал ему, что является агентом секретной независимой организации, которая стоит на защите всего мира. Он предложил парню пройти обучение и стать новым членом их команды. Эггси принял предложение Харта, но сможет ли он справиться со всеми испытаниями и оправдать его надежды?..

    Информация о видео кодек: MPEG-4 AVC
    Качество фильма: BDRip 720p
    Параметры Видео: 1280x536, 23.976 fps; ~1 632 kbps avg
    Параметры Звука: 44.1 KHz, AAC, ~150.00 kbps avg, 2ch
    Тип видео: mp4
    Автор рипа:
    Релиз-группа:

    Meta Tags


    MI
    General
    Complete name : E: Kingsman_Sekretnaya_sluzhba.2014.D.BDRip.720p_KinoGadget.mp4
    Format : MPEG-4
    Format profile : Base Media
    Codec ID : isom
    File size : 1.61 GiB
    Duration : 2h 8mn
    Overall bit rate mode : Variable
    Overall bit rate : 1 789 Kbps
    Movie name : Kingsman: Секретная служба
    Performer : Мэттью Вон
    Genre : Action, Adventure, Comedy
    ContentType : Short Film
    Recorded date : 2014
    Encoded date : UTC 2015-05-23 15: 33: 36
    Tagged date : UTC 2015-05-23 15: 40: 27
    Cover : Yes
    ContentRating : mpaa|R|400|
    LongDeion : Эггси — молодой парень, который прошел службу в морской пехоте и имеет очень высокий уровень интеллекта. Он мог бы добиться многого, но выбрал другой путь и стал мелким преступником. Однажды он знакомится с Гарри Хартом, которому его отец когда-то спас жизнь. Этот человек решил сделать все возможное, чтобы сделать жизнь Эггси лучше и открыть для него новые возможности.
    HDVideo : Yes
    Video
    ID : 1
    Format : AVC
    Format/Info : Advanced Video Codec
    Format profile : High@L4.1
    Format settings, CABAC : Yes
    Format settings, ReFrames : 11 frames
    Codec ID : avc1
    Codec ID/Info : Advanced Video Coding
    Duration : 2h 8mn
    Bit rate : 1 632 Kbps
    Maximum bit rate : 15.6 Mbps
    Width : 1 280 pixels
    Height : 536 pixels
    Display aspect ratio : 2.40: 1
    Frame rate mode : Constant
    Frame rate : 23.976 fps
    Color space : YUV
    Chroma subsampling : 4: 2: 0
    Bit depth : 8 bits
    Scan type : Progressive
    Bits/(Pixel*Frame) : 0.099
    Stream size : 1.47 GiB (91%)
    Writing library : x264 core 146 r2538 121396c
    Encoding settings : cabac=1/ref=11/deblock=1: -1: -1/analyse=0x3: 0x133/me=umh/subme=9/psy=1/psy_rd=1.00: 0.20/mixed_ref=1/me_range=24/chroma_me=1/trellis=2/8x8dct=1/cqm=0/deadzone=21, 11/fast_pskip=1/chroma_qp_offset=-3/threads=3/lookahead_threads=1/sliced_threads=0/nr=0/decimate=1/interlaced=0/bluray_compat=0/constrained_intra=0/bframes=4/b_pyramid=2/b_adapt=2/b_bias=0/direct=3/weightb=1/open_gop=0/weightp=2/keyint=240/keyint_min=23/scenecut=40/intra_refresh=0/rc_lookahead=60/rc=crf/mbtree=1/crf=21.0/qcomp=0.60/qpmin=0/qpmax=69/qpstep=4/ip_ratio=1.40/aq=1: 1.00
    Encoded date : UTC 2015-05-22 15: 31: 46
    Tagged date : UTC 2015-05-23 15: 34: 26
    Audio
    ID : 2
    Format : AAC
    Format/Info : Advanced Audio Codec
    Format profile : LC
    Codec ID : 40
    Duration : 2h 8mn
    Bit rate mode : Variable
    Bit rate : 150 Kbps
    Maximum bit rate : 233 Kbps
    Channel count : 2 channels
    Channel positions : Front: L R
    Sampling rate : 44.1 KHz
    Compression mode : Lossy
    Stream size : 138 MiB (8%)
    Language : Russian
    Encoded date : UTC 2015-05-23 15: 34: 08
    Tagged date : UTC 2015-05-23 15: 34: 26

    Скриншоты


    Залил: KinoGadget

    Онлайн видео Kingsman: Секретная служба


    Размер скачиваемого торрента: 1.61 GB (1726066629 Bytes)

    Kingsman: Секретная служба/Kingsman: The Secret Service (2014) BDRip 720p от KinoGadget | iPad
    загрузка...
    Рейтинг →
     (голосов: 1, оценка 3/5, голосовать можно 1 раз )

    Другие торренты по теме:

  • Kingsman: Тайная служба / Kingsman: Секретная служба (2015) TS
  • Kingsman: Секретная служба / Kingsman: The Secret Service (2014) TS
  • Kingsman: Секретная служба / Kingsman: The Secret Service (2014) HDRip | iTunes
  • Kingsman: Секретная служба / Kingsman: The Secret Service (2014) HDRip | iTunes
  • Kingsman: Секретная служба / Kingsman: The Secret Service (2014) BDRip 720p | iTunes
  • Kingsman: Секретная служба / Kingsman: The Secret Service (2014) BDRip 1080p | D | iTunes
  • Kingsman: Секретная служба / Kingsman: The Secret Service (2014) HDRip-AVC от ExKinoRay | iTunes
  • Kingsman: Секретная служба / Kingsman: The Secret Service (2014) HDRip-AVC | iTunes


    • Комментарии (0):

      Информация

      Информация

        Посетители, находящиеся в группе Гости, не могут оставлять комментарии в данной новости.

        ↓ Меню



        ↓ Опрос

        А Вы добавили сайт в закладки?
        Да
        Не


        Top 10 за месяц (Фильмы)