.
Авторизация | Регистрация
Хочешь лучшие торренты? Добавь свой email!
Добавить




Снайпер / American Sniper (2014) DVD5 торрент скачать бесплатно

Опубликовал: Админ | Дата: 23-05-2015, 21:04 | Просмотров: 118

Под прицелом у смерти

Создали в: 2014
Создали в: США/Warner Bros. Pictures, Village Roadshow Pictures, RatPac-Dune Entertainment, Mad Chance Productions, 22 Indiana Pictures, Malpaso Productions
Категория жанра: Боевик, триллер, военный, биография
Главный режиссер: Клинт Иствуд
Продюсеры: Брэдли Купер, Клинт Иствуд, Эндрю Лазар
Актеры: Брэдли Купер, Сиенна Миллер, Кайл Галлнер, Коул Конис, Бен Рид, Элиз Робертсон, Люк Саншайн, Трой Винсент, Брэндон Сальгадо, Кейр О`Доннелл
Описание фильма:
Экранизация мемуаров морского котика из Техаса Криса Кайла, который служил снайпером в Ираке и стал рекордсменом по числу убитых солдат противника, за что иракцы прозвали его дьяволом. Кроме самой войны, фильм рассказывает о воспоминаниях жены Криса, которая была свидетелем растущей привязанности мужа к его сослуживцам.
Перевод текста: Дублированныйлицензия
Субтитры: Английские, русские
Дата мировой премьеры: 11 ноября 2014
Дата российской премьеры: 5 марта 2015, Каро-Премьер
Дата выхода DVD релиза: 28 мая 2015, CP Дистрибуция
Время просмотра: 02: 07: 14
Качество фильма видео: DVD5
Информация о видео: 720x576@1024x576 (PAL 16: 9), ~4290 Кбит/сек
Информация о звуке 1: AC3 5.1, 384 Кбит/сек Английский - оригинал
Информация о звуке 2: AC3 5.1, 448 Кбит/сек Русский - дублированный
DVDInfo:
Title: American Sniper (2014) DVD5 PAL
Size: 4.36 Gb ( 4 576 286, 00 KBytes ) - DVD-5
Enabled regions: 1, 2, 3, 4, 5, 6, 7, 8
VTS_01 :
Play Length: 02: 07: 14+00: 00: 00+00: 00: 01
Video: PAL 16: 9 (720x576) VBR, Auto Letterboxed
Audio:
English (Dolby AC3, 6 ch)
Russian (Dolby AC3, 6 ch)
Subtitles:
English
Russian
Russian
* Menus Information *
VIDEO_TS Menu
Video:
PAL 16: 9 (720x576) VBR
Auto PanScan
Language Unit :
Title Menu
VTS_01 Menu
Video:
PAL 16: 9 (720x576) VBR
Auto PanScan
Audio:
Not specified (Dolby AC3, 2 ch)
English Language Unit :
Root Menu
MediaInfo:
Общее
Полное имя : G: ВидеоAmerican Sniper (2014) DVD5 PALVIDEO_TSVTS_01_2.VOB
Формат : MPEG-PS
Размер файла : 1024 Мбайт
Продолжительность : 27 м.
Режим общего битрейта : Переменный
Общий поток : 5226 Кбит/сек
Видео
Идентификатор : 224 (0xE0)
Формат : MPEG Video
Версия формата : Version 2
Профиль формата : Main@Main
Параметр BVOP формата : Да
Параметр матрицы формата : Выборочная
Параметр GOP формата : Variable
Структура изображения : Frame
Продолжительность : 27 м.
Вид битрейта : Переменный
Битрейт : 4290 Кбит/сек
Максимальный битрейт : 7499 Кбит/сек
Ширина : 720 пикселей
Высота : 576 пикселей
Соотношение сторон : 16: 9
Частота кадров : 25, 000 кадров/сек
Стандарт вещания : PAL
Цветовое пространство : YUV
Субдискретизация насыщенности : 4: 2: 0
Битовая глубина : 8 бит
Тип развёртки : Чересстрочная
Порядок развёртки : Верхнее поле первое
Метод сжатия : С потерями
Бит/(Пиксели*Кадры) : 0.414
Временной код первого кадра : 00: 29: 11: 02
Оригинал временного кода : Group of pictures t_head
Размер потока : 841 Мбайт (82%)
Аудио #1
Идентификатор : 189 (0xBD)-128 (0x80)
Формат : AC-3
Формат/Информация : Audio Coding 3
Расширение режима : CM (complete main)
Параметр Endianness формата : Big
Режим смешивания : DVD-Video
Продолжительность : 27 м.
Вид битрейта : Постоянный
Битрейт : 384 Кбит/сек
Каналы : 6 каналов
Расположение каналов : Front: L C R, Side: L R, LFE
Частота : 48, 0 КГц
Битовая глубина : 16 бит
Метод сжатия : С потерями
Задержка видео : -376 мс.
Размер потока : 75, 2 Мбайт (7%)
Аудио #2
Идентификатор : 189 (0xBD)-129 (0x81)
Формат : AC-3
Формат/Информация : Audio Coding 3
Расширение режима : CM (complete main)
Параметр Endianness формата : Big
Режим смешивания : DVD-Video
Продолжительность : 27 м.
Вид битрейта : Постоянный
Битрейт : 448 Кбит/сек
Каналы : 6 каналов
Расположение каналов : Front: L C R, Side: L R, LFE
Частота : 48, 0 КГц
Битовая глубина : 16 бит
Метод сжатия : С потерями
Задержка видео : -312 мс.
Размер потока : 87, 8 Мбайт (9%)
Текст #1
Идентификатор : 189 (0xBD)-32 (0x20)
Формат : RLE
Формат/Информация : Run-length encoding
Режим смешивания : DVD-Video
Продолжительность : 27 м.
Задержка видео : 1 с. 80 мс.
Текст #2
Идентификатор : 189 (0xBD)-33 (0x21)
Формат : RLE
Формат/Информация : Run-length encoding
Режим смешивания : DVD-Video
Продолжительность : 27 м.
Задержка видео : 4 с. 920 мс.
Меню
Доп. информация:
Исходник: Снайпер/American Sniper (2014) DVD9 | Custom.
Удалены: доп. материалы, английская описательная звуковая дорожка (в меню кнопки закрыты).
Команды диска переписаны заново, оставлен один VTS.
Видео сжато на 17, 6%
Меню: статичное, недействующие кнопки затерты и закрыты.
Обработка и сжатие: DVD ReMake Pro + DVD Rebuilder + CCE SP2 7 проходов + Работа с меню (Adobe PhotoShop и MuxMan).
Скриншоты меню:

Скриншоты:

Залил: Саша 1992

Онлайн видео Снайпер


Размер скачиваемого торрента: 4.36 GB (4686116864 Bytes)

Снайпер/American Sniper (2014) DVD5
загрузка...
Рейтинг →
 (голосов: 1, оценка 3/5, голосовать можно 1 раз )

Другие торренты по теме:



    Комментарии (0):

    Информация

    Информация

      Посетители, находящиеся в группе Гости, не могут оставлять комментарии в данной новости.

      ↓ Меню



      ↓ Опрос

      А Вы добавили сайт в закладки?
      Да
      Не


      Top 10 за месяц (Фильмы)