.
Авторизация | Регистрация




Игра (2011) WEBRip скачать торрент бесплатно

Опубликовал: Админ | Дата: 24-05-2015, 21:02 | Просмотров: 127


Детально о кино
Русское название: Игра
Создали в: 2011
Категория жанра: Детектив, криминал
Главный режиссер: Георгий Гаврилов, Сергей Лесогоров, Геннадий Иванов (V), Тимур Алпатов

Актеры
Прохор Дубравин, Павел Баршак, Мария Горбань, Наталья Левина, Дарья Повереннова, Спартак Сумченко, Владимир Фекленко, Игорь Теплов, Вероника Амирханова, Андрей Лебедев, Елена Торяник, Иван Мамонов, Анжелика Кошевая, Фёдор Миренков, Андрис Лиелайс, Георгий Сегал, Рауль Ганеев, Алексей Герилович, Иосиф Райхельгауз, Михаил Хмуров, Лидия Кузнецова, Бабек Акбаров, Ян Воробьёв, Владимир Шульга, Юрий Внуков, Сергей Баровский, Анна Фурс, Елена Антипова, Андрей Бажин, Андрей Афанасьев, Евгений Кожевников, Семён Штейнберг, Николай Козак, Ольга Дибцева, Евгений Березовский, Александр Загрудный, Алексей Аникин, Дмитрий Филиппов

Сюжет фильма

Сериал расскажет о противостоянии двух невероятно сильных личностей: следователя ФСБ Белова и отчаянного бандита Смолина, которые, однажды столкнувшись, станут личными врагами на всю жизнь. Это будет захватывающий поединок между равновеликими фигурами, одного из которых ведут правильные и положительные чувства и эмоции, второго - самые низменные пороки и страсти.
Снималось в: Россия
Киностудия: Телекомпания DIXI TV
Время просмотра: 20 х ~ 00: 50: 00
Перевод текста: Не требуется
Файл
Кодек для видео: XviD
Качество фильма: WEBRip
Информация о видео: MPEG4, XviD, 720x400 (16: 9), 25.000 fps, 1 149 Kbps (0.160 bit/pixel)
Информация о звуке: AC-3, 48.0 KHz, 2 ch, 192 Kbps, CBR
Субтитры: Нет

Названия серий
01. Часы Фишера
02. Белов
03. Младший
04. La legion etrangere
05. Спящая ячейка
06. Невидимая крепость
07. Чёрный ферзь
08. Щепка
09. Пешка
10. Рокировка
11. Убийца
12. Размен
13. Расплата
14. Это бизнес
15. Кровь невиновных
16. Пат
17. Эндшпиль
18. Мой единственный друг
19. Шах
20. Мат

MediaInfo
Общее
Полное имя : D: Мои фильмыIgra_S1_01-20iz20_2011_XviD_WEBRipIgra_S1_17_iz_20_2011_WEBRip.avi
Формат : AVI
Формат/Информация : Audio Video Interleave
Размер файла : 445 Мбайт
Продолжительность : 46 м.
Общий поток : 1351 Кбит/сек
Библиотека кодирования : VirtualDub build 35491/release
Видео
Идентификатор : 0
Формат : MPEG-4 Visual
Профиль формата : Advanced Simple@L5
Параметр BVOP формата : 2
Параметр QPel формата : Нет
Параметр GMC формата : Без точки перехода
Параметр матрицы формата : Default (H.263)
Идентификатор кодека : XVID
Идентификатор кодека/Подсказка : XviD
Продолжительность : 46 м.
Битрейт : 1149 Кбит/сек
Ширина : 720 пикселей
Высота : 400 пикселей
Соотношение сторон : 16: 9
Частота кадров : 25, 000 кадров/сек
Цветовое пространство : YUV
Субдискретизация насыщенности : 4: 2: 0
Битовая глубина : 8 бит
Тип развёртки : Прогрессивная
Метод сжатия : С потерями
Бит/(Пиксели*Кадры) : 0.160
Размер потока : 379 Мбайт (85%)
Библиотека кодирования : XviD 66
Аудио
Идентификатор : 1
Формат : AC-3
Формат/Информация : Audio Coding 3
Расширение режима : CM (complete main)
Параметр Endianness формата : Big
Идентификатор кодека : 2000
Продолжительность : 46 м.
Вид битрейта : Постоянный
Битрейт : 192 Кбит/сек
Каналы : 2 канала
Расположение каналов : Front: L R
Частота : 48, 0 КГц
Битовая глубина : 16 бит
Метод сжатия : С потерями
Размер потока : 63, 3 Мбайт (14%)
Выравнивание : Соединение по промежуткам
Продолжительность промежутка : 40 мс. (1, 00 видеокадр)
Время предзагрузки промежутка : 512 мс.

Скриншоты


Залил: iopuk60

Онлайн видео Видения ужасов


Размер скачиваемого торрента: 8.70 GB (9343523788 Bytes)

Игра (2011) WEBRip
загрузка...
Рейтинг →
 (голосов: 1, оценка 3/5, голосовать можно 1 раз )

Другие торренты по теме:



    Комментарии (0):

    Информация

    Информация

      Посетители, находящиеся в группе Гости, не могут оставлять комментарии в данной новости.

      ↓ Меню



      ↓ Опрос

      А Вы добавили сайт в закладки?
      Да
      Не


      Top 10 за неделю (Фильмы)