.
Авторизация | Регистрация
» » Век Адалин / The Age of Adaline (2015) WEB-DLRip-AVC | D | звук с TS скачать торрент бесплатно




    Век Адалин / The Age of Adaline (2015) WEB-DLRip-AVC | D | звук с TS скачать торрент бесплатно

    Опубликовал: Админ | Дата: 25-05-2015, 00:02 | Просмотров: 233


    Детально о кино
    Русское название: Век Адалин
    Русское название в мировом прокате: The Age of Adaline
    Создали в: 2015
    Категория жанра: драма, мелодрама
    Главный режиссер: Ли Толанд Кригер

    Актеры
    Блейк Лайвли, Михил Хаушман, Кэти Бейкер, Харрисон Форд, Эллен Бёрстин, Аманда Крю, Линда Бойд, Хью Росс, Ричард Хэрмон, Фульвио Чечере

    Сюжет фильма
    Мир изменился в прошлом столетии. Только Эделин не изменилась
    По сюжету главная героиня родилась вместе с XX веком и живет на свете уже сто лет, но при этом не стареет. Несмотря на свою долгую жизнь, Адалин так и не смогла найти любимого человека. Однако наконец-то она встречает мужчину, ради которого сможет снова стать смертной и состариться вместе с ним.

    Снималось в: США
    Киностудия: Lakeshore Entertainment, Sidney Kimmel Entertainment, Sierra/Affinity
    Время просмотра: 01: 52: 42
    Перевод текста: Дублированное звук с TS
    Файл
    Кодек для видео: MPEG-4 AVC (MKV)
    Качество фильма: WEB-DLRip-AVC
    Информация о видео: AVC, 1024x432, 2000 Kbps
    Информация о звуке: Russian: AC3, 192 kbps (2 ch)/English: AC3, 384 kbps (6 ch)
    Субтитры: нет

    Скриншоты
    MediaInfo
    General
    Unique ID : 48267013747793753735032365612833872200 (0x244FE38284B571FBEB9E864FD5A29948)
    Complete name : D: ДИСК1.ФИЛЬМЫВек Адалин The Age of Adaline (2015)The Age of Adaline (2014) WEB-DLRip-AVC.mkv
    Format : Matroska
    Format version : Version 2
    File size : 2.03 GiB
    Duration : 1h 52mn
    Overall bit rate : 2 581 Kbps
    Encoded date : UTC 2015-05-23 07: 07: 35
    Writing application : XviD4PSP 6.0/54.29.105
    Writing library : XviD4PSP 6.0/54.29.105
    Video
    ID : 1
    Format : AVC
    Format/Info : Advanced Video Codec
    Format profile : High@L4.1
    Format settings, CABAC : Yes
    Format settings, ReFrames : 7 frames
    Codec ID : V_MPEG4/ISO/AVC
    Duration : 1h 52mn
    Bit rate : 2 000 Kbps
    Width : 1 024 pixels
    Height : 432 pixels
    Display aspect ratio : 2.40: 1
    Original display aspect ratio : 2.40: 1
    Frame rate mode : Constant
    Frame rate : 24.000 fps
    Color space : YUV
    Chroma subsampling : 4: 2: 0
    Bit depth : 8 bits
    Scan type : Progressive
    Bits/(Pixel*Frame) : 0.188
    Stream size : 1.54 GiB (76%)
    Writing library : x264 core 128 r2216M 198a7ea
    Encoding settings : cabac=1/ref=8/deblock=1: -3: -3/analyse=0x3: 0x133/me=umh/subme=8/psy=1/psy_rd=1.00: 0.20/mixed_ref=1/me_range=24/chroma_me=1/trellis=2/8x8dct=1/cqm=0/deadzone=21, 11/fast_pskip=1/chroma_qp_offset=-3/threads=4/lookahead_threads=1/sliced_threads=0/nr=0/decimate=1/interlaced=0/bluray_compat=0/constrained_intra=0/bframes=8/b_pyramid=1/b_adapt=2/b_bias=8/direct=3/weightb=1/open_gop=0/weightp=2/keyint=240/keyint_min=24/scenecut=40/intra_refresh=0/rc_lookahead=40/rc=2pass/mbtree=1/bitrate=2000/ratetol=1.0/qcomp=0.60/qpmin=0/qpmax=69/qpstep=8/cplxblur=20.0/qblur=0.5/ip_ratio=1.40/aq=1: 1.00
    Language : English
    Default : Yes
    Forced : No
    NUMBER_OF_BYTES : 3356480712
    _STATISTICS_WRITING_APP : mkvmerge v7.7.0 (;Six Voices;) 64bit built on Feb 28 2015 23: 39: 33
    _STATISTICS_WRITING_DATE_UTC : 2015-05-23 07: 07: 35
    _STATISTICS_TAGS : BPS DURATION NUMBER_OF_FRAMES NUMBER_OF_BYTES
    DURATION : 01: 52: 42.875000000
    NUMBER_OF_FRAMES : 162309
    Audio #1
    ID : 2
    Format : AC-3
    Format/Info : Audio Coding 3
    Mode extension : CM (complete main)
    Format settings, Endianness : Big
    Codec ID : A_AC3
    Duration : 1h 52mn
    Bit rate mode : Constant
    Bit rate : 192 Kbps
    Channel(s) : 2 channels
    Channel positions : Front: L R
    Sampling rate : 48.0 KHz
    Bit depth : 16 bits
    Compression mode : Lossy
    Delay relative to video : 27ms
    Stream size : 155 MiB (7%)
    Language : Russian
    Default : Yes
    Forced : No
    _STATISTICS_TAGS : BPS DURATION NUMBER_OF_FRAMES NUMBER_OF_BYTES
    DURATION : 01: 52: 42.880000000
    NUMBER_OF_FRAMES : 211340
    NUMBER_OF_BYTES : 162309120
    _STATISTICS_WRITING_APP : mkvmerge v7.7.0 (;Six Voices;) 64bit built on Feb 28 2015 23: 39: 33
    _STATISTICS_WRITING_DATE_UTC : 2015-05-23 07: 07: 35
    Audio #2
    ID : 3
    Format : AC-3
    Format/Info : Audio Coding 3
    Mode extension : CM (complete main)
    Format settings, Endianness : Big
    Codec ID : A_AC3
    Duration : 1h 52mn
    Bit rate mode : Constant
    Bit rate : 384 Kbps
    Channel(s) : 6 channels
    Channel positions : Front: L C R, Side: L R, LFE
    Sampling rate : 48.0 KHz
    Bit depth : 16 bits
    Compression mode : Lossy
    Delay relative to video : 27ms
    Stream size : 310 MiB (15%)
    Language : English
    Default : Yes
    Forced : No
    NUMBER_OF_BYTES : 324618240
    _STATISTICS_WRITING_APP : mkvmerge v7.7.0 (;Six Voices;) 64bit built on Feb 28 2015 23: 39: 33
    _STATISTICS_WRITING_DATE_UTC : 2015-05-23 07: 07: 35
    _STATISTICS_TAGS : BPS DURATION NUMBER_OF_FRAMES NUMBER_OF_BYTES
    DURATION : 01: 52: 42.880000000
    NUMBER_OF_FRAMES : 211340

    Релиз подготовил:

    Онлайн видео Век Адалин


    Размер скачиваемого торрента: 2.03 GB (2181513677 Bytes)

    Век Адалин/The Age of Adaline (2015) WEB-DLRip-AVC | D | звук с TS
    загрузка...
    Рейтинг →
     (голосов: 1, оценка 3/5, голосовать можно 1 раз )

    Другие торренты по теме:



      Комментарии (0):

      Информация

      Информация

        Посетители, находящиеся в группе Гости, не могут оставлять комментарии в данной новости.

        ↓ Меню



        ↓ Опрос

        А Вы добавили сайт в закладки?
        Да
        Не


        Top 10 за неделю (Фильмы)