.
Авторизация | Регистрация
Хочешь лучшие торренты? Добавь свой email!
Добавить
» » Детка в Роллс-Ройсе / Rolls-Royce Baby (1975) Blu-Ray Remux 1080p | A торрент скачать бесплатно




    Детка в Роллс-Ройсе / Rolls-Royce Baby (1975) Blu-Ray Remux 1080p | A торрент скачать бесплатно

    Опубликовал: Админ | Дата: 25-05-2015, 11:29 | Просмотров: 344


    Детально о кино
    Русское название: Детка в Роллс-Ройсе
    Русское название в мировом прокате: Rolls-Royce Baby
    Создали в: 1975
    Категория жанра: Эротика, комедия
    Главный режиссер: Эрвин С. Дитрих

    Актеры
    Лина Ромай, Эрик Фальк, Урсула Мария Шефер, Роман Хубер, Кюрт Мейнике

    Сюжет фильма
    Богатая нимфоманка Лиза (Лина Ромай) после съемок в качестве модели часто ездит по окрестностям своей виллы на Роллс-Ройсе и подбирает попутчиков, чтобы прямо в машине заняться с ними сексом.

    Снималось в: Швейцария
    Киностудия: Elite Film
    Время просмотра: 01: 27: 38
    Перевод текста: Авторский одноголосый (Антон Алексеев)
    Файл
    Кодек для видео: MPEG-4 AVC
    Качество фильма: Blu-Ray Remux (1080p)
    Информация о видео: 29.9 Мбит/с, 1920x1080
    Информация о звуке: Русский, французский (AC3, 2 ch, 192 Кбит/с), немецкий (DTS-HD MA, 6 ch, 3567 Кбит/с), английский (DTS-HD MA, 6 ch, 3394 Кбит/с)
    Скриншоты



    Инфо-файл
    Общее
    Уникальный идентификатор : 172786353128764240098442128013835158803 (0x81FD70EF061EF43C885BC273902CC513)
    Полное имя : Rolls-Royce Baby.1975.BDRemux.1080p-ylnian.mkv
    Формат : Matroska
    Версия формата : Version 4/Version 2
    Размер файла : 22, 9 Гбайт
    Продолжительность : 1 ч. 27 м.
    Режим общего битрейта : Переменный
    Общий поток : 37, 3 Мбит/сек
    Название фильма : Rolls-Royce Baby.1975.BDRemux.1080p-ylnian
    Дата кодирования : UTC 2014-09-13 15: 17: 40
    Программа кодирования : mkvmerge v7.1.0 (;Good Love;) 64bit built on Jul 27 2014 13: 06: 55
    Библиотека кодирования : libebml v1.3.0 + libmatroska v1.4.1
    DURATION : 01: 27: 38.464000000
    NUMBER_OF_FRAMES : 164327
    NUMBER_OF_BYTES : 126203136
    _STATISTICS_WRITING_APP : mkvmerge v7.1.0 (;Good Love;) 64bit built on Jul 27 2014 13: 06: 55
    _STATISTICS_WRITING_DATE_UTC : 2014-09-13 15: 17: 40
    _STATISTICS_TAGS : BPS DURATION NUMBER_OF_FRAMES NUMBER_OF_BYTES
    Видео
    Идентификатор : 1
    Формат : AVC
    Формат/Информация : Advanced Video Codec
    Профиль формата : High@L4.1
    Параметр CABAC формата : Да
    Параметр ReFrames формата : 2 кадра
    Идентификатор кодека : V_MPEG4/ISO/AVC
    Продолжительность : 1 ч. 27 м.
    Вид битрейта : 29, 9 Мбит/сек
    Максимальный битрейт : 35, 2 Мбит/сек
    Ширина : 1920 пикселей
    Высота : 1080 пикселей
    Соотношение сторон : 16: 9
    Режим частоты кадров : Постоянный
    Частота кадров : 24, 000 кадра/сек
    Цветовое пространство : YUV
    Субдискретизация насыщенности : 4: 2: 0
    Битовая глубина : 8 бит
    Тип развёртки : Прогрессивная
    Заголовок : Rolls.Royce.Baby.1975.DUAL.COMPLETE.BLURAY-iFPD
    Язык : German
    Default : Да
    Forced : Да
    Аудио #1
    Идентификатор : 2
    Формат : AC-3
    Формат/Информация : Audio Coding 3
    Расширение режима : CM (complete main)
    Параметр Endianness формата : Big
    Идентификатор кодека : A_AC3
    Продолжительность : 1 ч. 27 м.
    Вид битрейта : Постоянный
    Битрейт : 192 Кбит/сек
    Каналы : 2 канала
    Расположение каналов : Front: L R
    Частота : 48, 0 КГц
    Битовая глубина : 16 бит
    Метод сжатия : С потерями
    Размер потока : 120 Мбайт (1%)
    Заголовок : AVO (Alekseev) (AC3 2.0 192 kbps)
    Язык : Russian
    Default : Да
    Forced : Да
    Аудио #2
    Идентификатор : 3
    Формат : DTS
    Формат/Информация : Digital Theater Systems
    Профиль формата : MA/Core
    Режим : 16
    Параметр Endianness формата : Big
    Идентификатор кодека : A_DTS
    Продолжительность : 1 ч. 27 м.
    Вид битрейта : Переменный
    Битрейт : Неизвестно/1509 Кбит/сек
    Каналы : 6 каналов
    Расположение каналов : Front: L C R, Side: L R, LFE
    Частота : 48, 0 КГц
    Битовая глубина : 24 бит
    Метод сжатия : Без потерь/Lossy
    Заголовок : DTS-HD MA 5.1 3567 kbps
    Язык : German
    Default : Нет
    Forced : Нет
    Аудио #3
    Идентификатор : 4
    Формат : DTS
    Формат/Информация : Digital Theater Systems
    Профиль формата : MA/Core
    Режим : 16
    Параметр Endianness формата : Big
    Идентификатор кодека : A_DTS
    Продолжительность : 1 ч. 27 м.
    Вид битрейта : Переменный
    Битрейт : Неизвестно/1509 Кбит/сек
    Каналы : 6 каналов
    Расположение каналов : Front: L C R, Side: L R, LFE
    Частота : 48, 0 КГц
    Битовая глубина : 24 бит
    Метод сжатия : Без потерь/Lossy
    Заголовок : DTS-HD MA 5.1 3394 kbps
    Язык : English
    Default : Нет
    Forced : Нет
    Аудио #4
    Идентификатор : 5
    Формат : AC-3
    Формат/Информация : Audio Coding 3
    Расширение режима : CM (complete main)
    Параметр Endianness формата : Big
    Идентификатор кодека : A_AC3
    Продолжительность : 1 ч. 27 м.
    Вид битрейта : Постоянный
    Битрейт : 192 Кбит/сек
    Каналы : 2 канала
    Расположение каналов : Front: L R
    Частота : 48, 0 КГц
    Битовая глубина : 16 бит
    Метод сжатия : С потерями
    Размер потока : 120 Мбайт (1%)
    Заголовок : AC3 2.0 192 kbps
    Язык : French
    Default : Нет
    Forced : Нет

    Релиз подготовил: ylnian
    Залил: El Banditо

    Онлайн видео Детка в Роллс-Ройсе


    Размер скачиваемого торрента: 22.86 GB (24548874249 Bytes)

    Детка в Роллс-Ройсе/Rolls-Royce Baby (1975) Blu-Ray Remux 1080p | A
    загрузка...
    Рейтинг →
     (голосов: 1, оценка 3/5, голосовать можно 1 раз )

    Другие торренты по теме:

  • Детка в Роллс-Ройсе / Rolls-Royce Baby
  • Детка в Роллс-Ройсе / Девочка из Роллс-Ройса / Rolls-Royce Baby (1975) HDRip | A
  • Детка в Роллс-Ройсе / Rolls-Royce Baby (1975) BDRip 720p | A
  • Детка в Роллс-Ройсе / Rolls-Royce Baby (1975) HDRip от KinoRay Sheikn | A


    • Комментарии (0):

      Информация

      Информация

        Посетители, находящиеся в группе Гости, не могут оставлять комментарии в данной новости.

        ↓ Меню



        ↓ Опрос

        А Вы добавили сайт в закладки?
        Да
        Не


        Top 10 за месяц (Фильмы)