.
Авторизация | Регистрация
» » В горах Югославии / V gorakh Yugoslavii (1946) DVDRip от New-Team скачать торрент бесплатно




    В горах Югославии / V gorakh Yugoslavii (1946) DVDRip от New-Team скачать торрент бесплатно

    Опубликовал: Админ | Дата: 25-05-2015, 15:00 | Просмотров: 61


    Снималось в: Югославия, СССР
    Создали в: Мосфильм
    Категория жанра: драма, военный
    Создали в: 1946
    Время просмотра: 01: 20: 17
    Перевод текста: Не требуется
    Субтитры подготовлены: нет
    Оригинальная аудиодорожка: русский
    Главный режиссер: Абрам Роом, Эдуард Тиссэ

    Актеры

    Иван Берсенев, Николай Мордвинов, Ольга Жизнева, Всеволод Санаев, Вьекослав Африч, Миса Маркович, Драган Тодич...
    Описание:
    Бойцы Югославской народно-освободительной армии, выросшей из партизанских отрядов и руководимой маршалом Иосипом Броз Тито, громят врага, освобождая все новые города и села. Советские танки входят в Белград. Уже скоро наступит День Победы…



    Источник: DVD5 R5
    Качество фильма видео: DVDRip
    Тип видео видео: AVI
    Информация о видео: 640x480 (4: 3), 25 fps, XviD ~ 1162 kbps avg, 0.151 bit/pixel
    Информация о звуке: 48 kHz, MP3 2.0, 128 kbps
    Раздача от:
    MediaInfo

    Общее
    Полное имя : V.gorah.Yugoslavii.1946.DVDRip-745_New-team_by_AVP_Studio.avi
    Формат : AVI
    Формат/Информация : Audio Video Interleave
    Размер файла : 747 Мбайт
    Продолжительность : 1 ч. 20 м.
    Общий поток : 1300 Кбит/сек
    Программа кодирования : VirtualDubModRus 1.5.10.2 (build 2542/release)
    Библиотека кодирования : VirtualDubMod build 2542/release
    Видео
    Идентификатор : 0
    Формат : MPEG-4 Visual
    Профиль формата : Advanced Simple@L5
    Параметр BVOP формата : 1
    Параметр QPel формата : Нет
    Параметр GMC формата : Без точки перехода
    Параметр матрицы формата : Выборочная
    Идентификатор кодека : XVID
    Идентификатор кодека/Подсказка : XviD
    Продолжительность : 1 ч. 20 м.
    Битрейт : 1162 Кбит/сек
    Ширина : 640 пикселей
    Высота : 480 пикселей
    Соотношение сторон : 4: 3
    Частота кадров : 25, 000 кадров/сек
    Цветовое пространство : YUV
    Субдискретизация насыщенности : 4: 2: 0
    Битовая глубина : 8 бит
    Тип развёртки : Прогрессивная
    Метод сжатия : С потерями
    Бит/(Пиксели*Кадры) : 0.151
    Размер потока : 667 Мбайт (89%)
    Библиотека кодирования : XviD 73
    Аудио
    Идентификатор : 1
    Формат : MPEG Audio
    Версия формата : Version 1
    Профиль формата : Layer 3
    Идентификатор кодека : 55
    Идентификатор кодека/Подсказка : MP3
    Продолжительность : 1 ч. 20 м.
    Вид битрейта : Постоянный
    Битрейт : 128 Кбит/сек
    Каналы : 2 канала
    Частота : 48, 0 КГц
    Метод сжатия : С потерями
    Размер потока : 73, 5 Мбайт (10%)
    Выравнивание : Соединение по промежуткам
    Продолжительность промежутка : 40 мс. (1, 00 видеокадр)
    Время предзагрузки промежутка : 504 мс.
    Библиотека кодирования : LAME3.99r
    Залил: AVPStudio

    Онлайн видео В горах Югославии


    Размер скачиваемого торрента: 746.50 MB (782761984 Bytes)


    В горах Югославии/V gorakh Yugoslavii (1946) DVDRip от New-Team
    загрузка...
    Рейтинг →
     (голосов: 1, оценка 3/5, голосовать можно 1 раз )

    Другие торренты по теме:

  • Слепая Гора / Blind Mountain / Mang Shan (2007) DVDRip торрент скачать бесплатно
  • Время обедать! Рецепты с Ведьминой горы (2013) SATRemux от RG Тorrent-Хzona торрент скачать бесплатно
  • Горбатая гора / Brokeback Mountain (2005) BDRip 1080p торрент скачать бесплатно
  • Ловушка в горах: Поместье воспоминаний (2013) PC торрент скачать бесплатно
  • OST - Горбатая гора / Brokeback Mountain (2005) MP3 торрент скачать бесплатно
  • OST - Ведьмина гора / Race To Witch Mountain (2009) MP3 торрент скачать бесплатно
  • Красивые деревни красиво горят / Lepa sela lepo gore (1996) DVDRip торрент скачать бесплатно
  • Павел Бажов - Каменный цветок, Малахитовая шкатулка, Медной горы Хозяйка и другие сказы (2003) MP3 торрент скачать бесплатно


    • Комментарии (0):

      Информация

      Информация

        Посетители, находящиеся в группе Гости, не могут оставлять комментарии в данной новости.

        ↓ Меню



        ↓ Опрос

        А Вы добавили сайт в закладки?
        Да
        Не


        Top 10 за неделю (Фильмы)