.
Авторизация | Регистрация
» » Полдарк / Poldark (2015) WEB-DLRip | BaibaKo скачать торрент бесплатно




    Полдарк / Poldark (2015) WEB-DLRip | BaibaKo скачать торрент бесплатно

    Опубликовал: Админ | Дата: 25-05-2015, 15:02 | Просмотров: 220


    Детально о кино
    Русское название: Полдарк
    Русское название в мировом прокате: Poldark
    Создали в: 2015
    Категория жанра: драма
    Главный режиссер: Эдвард Базалгетт, Уильям МакГрегор

    Актеры
    Эйдан Тёрнер, Элеанор Томлинсон, Хейда Рид, Кайл Соллер, Руби Бенталл, Бети Эдни, Джек Фартинг, Фил Дэвис и Уоррен Кларк и др.

    Сюжет фильма

    Росс Полдарк возвращается домой с войны, надеясь на спокойную и счастливую жизнь в кругу семьи, и обнаруживает, что отец умер, домом управляют слуги-пьяницы, а невеста Элизабет, уверенная, что он погиб, обручилась с его кузеном.
    Официальный сайт
    Снималось в: Великобритания
    Киностудия: Mammoth Screen, BBC One
    Время просмотра: ~00: 59: 00 серия
    Перевод текста: Любительский (многоголосый закадровый)BaibaKo
    Автор перевода: Янина Галицкая
    Озвучка: Светлана Доманова, Лира Грим, Сергей Корчак и Акмал Гурезов
    Файл
    Кодек для видео: XviD/MP3
    Качество фильма: WEB-DLRip
    Информация о видео: MPEG4, XviD, 720x400 (16: 9), 25.000 fps, 1 509 Kbps (0.210 bit/pixel)
    Информация о звуке:
    Аудио #1: MP3, 48.0 KHz, 2 ch, 192 Kbps, CBR rus
    Аудио #2: MP3, 48.0 KHz, 2 ch, 192 Kbps, CBR eng
    Семпл
    Скриншоты
    Screenshots
    Повтор скриншотов
    MediaInfo
    General
    Complete name : Poldark.s01e01.WEB-DLRip.XviD.Rus.Eng.BaibaKo.tv.avi
    Format : AVI
    Format/Info : Audio Video Interleave
    File size : 800 MiB
    Duration : 58mn 37s
    Overall bit rate : 1 908 Kbps
    Writing application : VirtualDubMod 1.5.10.2 (build 2540/release)
    Writing library : VirtualDubMod build 2540/release
    Video
    ID : 0
    Format : MPEG-4 Visual
    Format profile : Advanced Simple@L5
    Format settings, BVOP : 2
    Format settings, QPel : No
    Format settings, GMC : No warppoints
    Format settings, Matrix : Default (H.263)
    Codec ID : XVID
    Codec ID/Hint : XviD
    Duration : 58mn 37s
    Bit rate : 1 510 Kbps
    Width : 720 pixels
    Height : 400 pixels
    Display aspect ratio : 16: 9
    Frame rate : 25.000 fps
    Color space : YUV
    Chroma subsampling : 4: 2: 0
    Bit depth : 8 bits
    Scan type : Progressive
    Compression mode : Lossy
    Bits/(Pixel*Frame) : 0.210
    Stream size : 633 MiB (79%)
    Writing library : XviD 1.2.1 (UTC 2008-12-04)
    Audio #1
    ID : 1
    Format : MPEG Audio
    Format version : Version 1
    Format profile : Layer 3
    Mode : Joint stereo
    Codec ID : 55
    Codec ID/Hint : MP3
    Duration : 58mn 37s
    Bit rate mode : Constant
    Bit rate : 192 Kbps
    Channel(s) : 2 channels
    Sampling rate : 48.0 KHz
    Compression mode : Lossy
    Stream size : 80.5 MiB (10%)
    Alignment : Aligned on interleaves
    Interleave, duration : 40 ms (1.00 video frame)
    Interleave, preload duration : 504 ms
    Audio #2
    ID : 2
    Format : MPEG Audio
    Format version : Version 1
    Format profile : Layer 3
    Mode : Joint stereo
    Codec ID : 55
    Codec ID/Hint : MP3
    Duration : 58mn 37s
    Bit rate mode : Constant
    Bit rate : 192 Kbps
    Channel(s) : 2 channels
    Sampling rate : 48.0 KHz
    Compression mode : Lossy
    Stream size : 80.5 MiB (10%)
    Alignment : Aligned on interleaves
    Interleave, duration : 40 ms (1.00 video frame)
    Interleave, preload duration : 504 ms
    Writing library : LAME3.98.4


    Онлайн видео Полдарк


    Размер скачиваемого торрента: 5.42 GB (5822685334 Bytes)

    Полдарк/Poldark (2015) WEB-DLRip | BaibaKo
    загрузка...
    Рейтинг →
     (голосов: 1, оценка 4/5, голосовать можно 1 раз )

    Другие торренты по теме:

  • Полдарк / Poldark (2015) WEB-DLRip | BaibaKo скачать торрент бесплатно
  • Полдарк / Poldark (2015) WEB-DL 1080p | Baibako скачать торрент бесплатно
  • Полдарк / Poldark (2015) WEB-DLRip-AVC | Baibako скачать торрент бесплатно
  • Полдарк / Poldark (2015) WEB-DL 720p | BaibaKo скачать торрент бесплатно
  • Полдарк / Poldark (2015) HDTVRip | BaibaKo скачать торрент бесплатно
  • Полдарк / Poldark (1975) DVDRip от Исторический Роман | L скачать торрент бесплатно
  • Полдарк / Poldark (1975) DVDRip-AVC от Исторический Роман | L скачать торрент бесплатно
  • Полдарк / Poldark (2016) HDTV 720р | NEON Studio скачать торрент бесплатно


    • Комментарии (0):

      Информация

      Информация

        Посетители, находящиеся в группе Гости, не могут оставлять комментарии в данной новости.

        ↓ Меню



        ↓ Опрос

        А Вы добавили сайт в закладки?
        Да
        Не


        Top 10 за неделю (Фильмы)