.
Авторизация | Регистрация
Хочешь лучшие торренты? Добавь свой email!
Добавить




Фокус / Focus (2015) BDRip 720p | D торрент скачать бесплатно

Опубликовал: Админ | Дата: 25-05-2015, 15:02 | Просмотров: 80



Детально о кино
Русское название: Фокус
Русское название в мировом прокате: Focus
Создали в: 2015
Категория жанра: драма, мелодрама, комедия, криминал
Главный режиссер: Гленн Фикарра, Джон Рекуа

Актеры
Уилл Смит, Марго Робби, Родриго Санторо, Джералд МакРэйни, Б.Д. Вонг, Роберт Тейлор, Бреннан Браун, Адриан Мартинес, Лаура Флэннери, Стефани Онор


Сюжет фильма
История об опытном мошеннике, который влюбляется в девушку, делающую первые шаги на поприще нелегального отъема средств у граждан. Отношения становятся для них проблемой, когда обнаруживается, что романтика мешает их нечестному бизнесу.



Снималось в: США/Kramer Sigman Films, Zaftig Films
Время просмотра: 01: 44: 44
Перевод текста: Профессиональный (полное дублирование)

Файл
Качество фильма: BDRip 720p
Тип видео: MKV
Информация о видео: MPEG4/AVC, 5336 Кбит/сек, 1280х720 (16: 9), 23.976 кадра/сек
Информация о звуке 1: AC3, 6 каналов, 640 Кбит/сек | Русский - BlueBird
Информация о звуке 2: AC3, 2 канала, 192 Кбит/сек | Украинский - iTunes
Информация о звуке 3: AC3, 6 каналов, 640 Кбит/сек | Английский
Субтитры: Русские, украинские (Forced), английские (Full, SDH)
Навигация по главам: Есть

MediaInfo:
Общее
Уникальный идентификатор : 186737344158385051203100192893259214246 (0x8C7C4DE59F227DA7852C26EF3AE7EDA6)
Полное имя : Focus. (2015) BDRip 720p.mkv
Формат : Matroska
Версия формата : Version 2
Размер файла : 4, 98 Гбайт
Продолжительность : 1 ч. 44 м.
Общий поток : 6805 Кбит/сек
Название фильма : Focus. 2015
Дата кодирования : UTC 2015-05-24 20: 21: 53
Программа кодирования : mkvmerge v5.8.0 (;No Sleep/Pillow;) built on Sep 2 2012 15: 37: 04
Библиотека кодирования : libebml v1.2.3 + libmatroska v1.3.0

Видео
Идентификатор : 1
Формат : AVC
Формат/Информация : Advanced Video Codec
Профиль формата : High@L4.1
Параметр CABAC формата : Да
Параметр ReFrames формата : 9 кадров
Идентификатор кодека : V_MPEG4/ISO/AVC
Продолжительность : 1 ч. 44 м.
Битрейт : 5336 Кбит/сек
Ширина : 1280 пикселей
Высота : 720 пикселей
Соотношение сторон : 16: 9
Режим частоты кадров : Постоянный
Частота кадров : 23, 976 кадра/сек
Цветовое пространство : YUV
Субдискретизация насыщенности : 4: 2: 0
Битовая глубина : 8 бит
Тип развёртки : Прогрессивная
Бит/(Пиксели*Кадры) : 0.241
Размер потока : 3, 80 Гбайт (76%)
Заголовок : WiKi
Библиотека кодирования : x264 core 129 r2245+704+36 8e61944 tMod+MixAQ 8-bit@4: 2: 0 X86_64
Настройки программы : cabac=1/ref=9/deblock=1: -3: -3/analyse=0x3: 0x133/me=umh/subme=11/psy=1/fade_compensate=0.00/psy_rd=1.05: 0.10/mixed_ref=1/me_range=32/chroma_me=1/trellis=2/8x8dct=1/cqm=0/deadzone=21, 11/fast_pskip=0/chroma_qp_offset=-3/threads=18/lookahead_threads=3/sliced_threads=0/nr=0/decimate=0/interlaced=0/bluray_compat=0/constrained_intra=0/fgo=0/bframes=10/b_pyramid=2/b_adapt=2/b_bias=0/direct=3/weightb=1/open_gop=0/weightp=2/keyint=250/keyint_min=23/scenecut=40/intra_refresh=0/rc_lookahead=80/rc=2pass/mbtree=1/bitrate=5336/ratetol=1.0/qcomp=0.70/qpmin=0/qpmax=69/qpstep=4/cplxblur=20.0/qblur=0.5/ip_ratio=1.40/aq=1/aq-strength=0.85/aq-sensitivity=10.00/aq-ifactor=1.00/aq-pfactor=1.00/aq-bfactor=1.00/aq2=0
Язык : English
Default : Да
Forced : Нет

Аудио #1
Идентификатор : 2
Формат : AC-3
Формат/Информация : Audio Coding 3
Расширение режима : CM (complete main)
Параметр Endianness формата : Big
Идентификатор кодека : A_AC3
Продолжительность : 1 ч. 44 м.
Вид битрейта : Постоянный
Битрейт : 640 Кбит/сек
Каналы : 6 каналов
Расположение каналов : Front: L C R, Side: L R, LFE
Частота : 48, 0 КГц
Битовая глубина : 16 бит
Метод сжатия : С потерями
Размер потока : 479 Мбайт (9%)
Заголовок : DUB | License
Язык : Russian
Default : Да
Forced : Нет

Аудио #2
Идентификатор : 3
Формат : AC-3
Формат/Информация : Audio Coding 3
Расширение режима : CM (complete main)
Параметр Endianness формата : Big
Идентификатор кодека : A_AC3
Продолжительность : 1 ч. 44 м.
Вид битрейта : Постоянный
Битрейт : 192 Кбит/сек
Каналы : 2 канала
Расположение каналов : Front: L R
Частота : 48, 0 КГц
Битовая глубина : 16 бит
Метод сжатия : С потерями
Размер потока : 144 Мбайт (3%)
Заголовок : DUB | iTunes
Язык : Ukrainian
Default : Нет
Forced : Нет

Аудио #3
Идентификатор : 4
Формат : AC-3
Формат/Информация : Audio Coding 3
Расширение режима : CM (complete main)
Параметр Endianness формата : Big
Идентификатор кодека : A_AC3
Продолжительность : 1 ч. 44 м.
Вид битрейта : Постоянный
Битрейт : 640 Кбит/сек
Каналы : 6 каналов
Расположение каналов : Front: L C R, Side: L R, LFE
Частота : 48, 0 КГц
Битовая глубина : 16 бит
Метод сжатия : С потерями
Размер потока : 479 Мбайт (9%)
Заголовок : Original
Язык : English
Default : Нет
Forced : Нет

Текст #1
Идентификатор : 5
Формат : UTF-8
Идентификатор кодека : S_TEXT/UTF8
Идентификатор кодека/Информация : UTF-8 Plain Text
Заголовок : Full
Язык : Russian
Default : Нет
Forced : Нет

Текст #2
Идентификатор : 6
Формат : UTF-8
Идентификатор кодека : S_TEXT/UTF8
Идентификатор кодека/Информация : UTF-8 Plain Text
Заголовок : Forced
Язык : Ukrainian
Default : Нет
Forced : Нет

Текст #3
Идентификатор : 7
Формат : UTF-8
Идентификатор кодека : S_TEXT/UTF8
Идентификатор кодека/Информация : UTF-8 Plain Text
Заголовок : Full
Язык : English
Default : Нет
Forced : Нет

Текст #4
Идентификатор : 8
Формат : UTF-8
Идентификатор кодека : S_TEXT/UTF8
Идентификатор кодека/Информация : UTF-8 Plain Text
Заголовок : SDH
Язык : English
Default : Нет
Forced : Нет

Меню
00: 00: 00.000 : en: 00: 00: 00.000
00: 09: 17.974 : en: 00: 09: 17.974
00: 18: 55.217 : en: 00: 18: 55.217
00: 30: 22.904 : en: 00: 30: 22.904
00: 40: 56.078 : en: 00: 40: 56.078
00: 49: 16.370 : en: 00: 49: 16.370
01: 00: 10.481 : en: 01: 00: 10.481
01: 11: 02.758 : en: 01: 11: 02.758
01: 20: 27.489 : en: 01: 20: 27.489
01: 28: 33.891 : en: 01: 28: 33.891
01: 39: 19.620 : en: 01: 39: 19.620



Релиз подготовил:
Размер скачиваемого торрента: 4.98 GB (5345781067 Bytes)

Фокус/Focus (2015) BDRip 720p | D
загрузка...
Рейтинг →
 (голосов: 1, оценка 3/5, голосовать можно 1 раз )

Другие торренты по теме:

  • Фокус-покус / Hocus Pocus (1993) BDRip 1080p
  • Без обмана: Фокус с креветками (2013) IPTVRip
  • Фокус (2015)
  • Фокус / Focus (2015) CAMRip от UNIONGANG
  • Фокус / Focus (2015) WEBRip | Звук с CAMRip
  • Фокус / Focus (2015) HDRip | Лицензия *
  • Фокус / Focus (2015) WEB-DLRip | Чистый звук
  • Фокус / Focus (2015) WEB-DLRip от Scarabey | iTunes


    • Комментарии (0):

      Информация

      Информация

        Посетители, находящиеся в группе Гости, не могут оставлять комментарии в данной новости.

        ↓ Меню



        ↓ Опрос

        А Вы добавили сайт в закладки?
        Да
        Не


        Top 10 за месяц (Фильмы)