.
Авторизация | Регистрация
Хочешь лучшие торренты? Добавь свой email!
Добавить
» » Плохие парни / Bad Boys (1995) BDRip 720p от HQ-ViDEO | D торрент скачать бесплатно




    Плохие парни / Bad Boys (1995) BDRip 720p от HQ-ViDEO | D торрент скачать бесплатно

    Опубликовал: Админ | Дата: 25-05-2015, 15:02 | Просмотров: 129

    Плохие парни/Bad Boys (1995) BDRip 720p
    Релиз от HQ-ViDEO

    Детально о кино
    Русское название: Плохие парни
    Русское название в мировом прокате: Bad Boys
    Создали в: 1995
    Категория жанра: боевик, триллер, драма, комедия, криминал
    Главный режиссер: Майкл Бэй /Michael Bay/

    Актеры
    Мартин Лоуренс /Martin Lawrence/, Уилл Смит /Will Smith/, Теа Леони /Tea Leoni/, Чеки Карио /Tcheky Karyo/, Тереза Рэндл /Theresa Randle/, Мардж Хелгенбергер /Marg Helgenberger/, Нестор Серрано /Nestor Serrano/, Хулио Оскар Мекозо /Julio Oscar Mechoso/, Саверио Гуэрра /Saverio Guerra/, Анна Томсон /Anna Thomson/, Кевин Корригэн /Kevin Corrigan/, Майкл Империоли /Michael Imperioli/, Джо Пантолиано /Joe Pantoliano/...

    Сюжет фильма

    Они — полная противоположность друг друга. Один из них — примерный семьянин и не имеет состояния, другой богат и пользуется всеми благами холостяцкой жизни. Помимо дружбы их объединяет работа в полиции.
    Их новое задание — поймать жестокого преступника, укравшего наркотики с секретного склада, а также спасти девушку, которая случайно оказалась на его пути. Но для этого друзьям придется поменяться местами...

    Снималось в: США
    Время просмотра: 01: 58: 51
    Перевод текста: Русский дублированный + Оригинальная, английская дорожка
    Файл
    Кодек для видео: MKV, H.264
    Качество фильма: BDRip 720p (Source: Blu-ray Disc)
    Информация о видео: 5704 kbps; 0.269 bit/pixel; 1280 x 692; 1.85: 1; 23.976 fps
    Информация о звуке #1: AC3 Dolby Digital; 448.00 kbps, 6 Ch - DUB
    Информация о звуке #2: AC3 Dolby Digital; 448.00 kbps, 6 Ch - ENG
    Субтитры: Русские, Английские.
    Субтитры: Русские (полные, форсированные), Английские (полные, SDH).(Отдельно)
    Размер скачиваемого торрента: 5.59 GB
    SAMPLE/скачать с Яндекс Диск
    MediaInfo

    General
    Complete name : Plohiye.Parni.1995.DUAL.BDRip.h264.720p.AC3.-HQ-ViDEOi.mkv
    Format : Matroska
    File size : 5.59 GiB
    Duration : 1h 58mn
    Overall bit rate : 6 734 Kbps
    Movie name : Bad Boys (1995)
    Encoded date : UTC 2010-07-20 12: 27: 11
    Writing application : mkvmerge v3.3.0 (;Language;) built on Mar 24 2010 14: 59: 24
    Writing library : libebml v0.8.0 + libmatroska v0.9.0
    Video
    ID : 1
    Format : AVC
    Format/Info : Advanced Video Codec
    Format profile : High@L4.1
    Format settings, CABAC : Yes
    Format settings, ReFrames : 6 frames
    Muxing mode : Container profile=Unknown@4.1
    Codec ID : V_MPEG4/ISO/AVC
    Duration : 1h 58mn
    Bit rate : 5 704 Kbps
    Width : 1 280 pixels
    Height : 692 pixels
    Display aspect ratio : 1.850
    Frame rate : 23.976 fps
    Resolution : 8 bits
    Colorimetry : 4: 2: 0
    Scan type : Progressive
    Bits/(Pixel*Frame) : 0.269
    Stream size : 4.73 GiB (85%)
    Title : Encoded by GYN
    Audio #1
    ID : 2
    Format : AC-3
    Format/Info : Audio Coding 3
    Codec ID : A_AC3
    Duration : 1h 58mn
    Bit rate mode : Constant
    Bit rate : 448 Kbps
    Channel(s) : 6 channels
    Channel positions : Front: L C R, Surround: L R, LFE
    Sampling rate : 48.0 KHz
    Stream size : 381 MiB (7%)
    Title : DUB
    Language : Russian
    Audio #2
    ID : 3
    Format : AC-3
    Format/Info : Audio Coding 3
    Codec ID : A_AC3
    Duration : 1h 58mn
    Bit rate mode : Constant
    Bit rate : 448 Kbps
    Channel(s) : 6 channels
    Channel positions : Front: L C R, Surround: L R, LFE
    Sampling rate : 48.0 KHz
    Stream size : 381 MiB (7%)
    Title : Original
    Language : English
    Text #1
    ID : 4
    Format : UTF-8
    Codec ID : S_TEXT/UTF8
    Codec ID/Info : UTF-8 Plain Text
    Text #2
    ID : 5
    Format : UTF-8
    Codec ID : S_TEXT/UTF8
    Codec ID/Info : UTF-8 Plain Text





    Релиз подготовил: HQ-ViDEO
    Автор рипа: GYN

    Онлайн видео Плохие парни


    Размер скачиваемого торрента: 5.59 GB (6003084129 Bytes)

    Плохие парни/Bad Boys (1995) BDRip 720p от HQ-ViDEO | D
    загрузка...
    Рейтинг →
     (голосов: 1, оценка 3/5, голосовать можно 1 раз )

    Другие торренты по теме:

  • Очень плохие парни / Большие Плохие Волки / Big Bad Wolves (2013) Blu-ray Remux 1080p от MediaClub | P, 2xL1 скачать через торрент бесплатно
  • Плохие парни / Bad Boys (1995) BDRip 720p от NoLimits-Team
  • Плохие парни 2 / Bad Boys 2 (2003) HDTVRip 720р | D, А
  • Очень плохие парни (2014) скачать через торрент бесплатно
  • Очень плохие парни / Big Bad Wolves (2013) WEB-DLRip | Xixidok скачать через торрент бесплатно
  • Очень плохие парни / Big Bad Wolves (2013) WEB-DL 720p | L1
  • Очень плохие парни / Big Bad Wolves (2013) WEB-DLRip | P скачать через торрент бесплатно
  • Очень плохие парни / Big Bad Wolves (2013) BDRip 1080p от CINEMANIA | P, 2xL1 скачать через торрент бесплатно


    • Комментарии (0):

      Информация

      Информация

        Посетители, находящиеся в группе Гости, не могут оставлять комментарии в данной новости.

        ↓ Меню



        ↓ Опрос

        А Вы добавили сайт в закладки?
        Да
        Не


        Top 10 за месяц (Фильмы)