.
Авторизация | Регистрация
» » Терминатор: Генезис / Terminator: Genisys (2015) WEBRip 1080p | Трейлер скачать торрент бесплатно




    Терминатор: Генезис / Terminator: Genisys (2015) WEBRip 1080p | Трейлер скачать торрент бесплатно

    Опубликовал: Админ | Дата: 25-05-2015, 15:02 | Просмотров: 209


    Создали в: 2015
    Создали в: США
    Категория жанра: фантастика, боевик, триллер, приключения
    Перевод текста: Дублированный
    Главный режиссер: Алан Тейлор
    Продюсеры: Дэвид Эллисон, Дэна Голдберг, Билл Карраро
    Актеры: Эмилия Кларк, Арнольд Шварценеггер, Джай Кортни, Дж.К. Симмонс, Мэтт Смит. Джейсон Кларк, Ли Бён Хон, Сандрин Холт, Бретт Азар, Дуглас Смит
    Описание трейлера:
    Второй официальный русский трейлер фильма Терминатор 5: Генезис 2015 (дублированный).
    Описание фильма:
    Когда Джон Коннор, лидер сопротивления, посылает сержанта Кайла Риза назад в 1984 год, чтобы защитить Сару Коннор и спасти будущее, неожиданный поворот событий создает разлом во времени. Сержант Риз оказывается в новой, незнакомой версии прошлого, где он встречает неожиданных союзников, в том числе Терминатора, новых опасных врагов, и новую миссию: изменить будущее…
    Дата мировой премьеры: 25 июня 2015
    Дата российской премьеры: 2 июля 2015

    Время просмотра: 00: 02: 24
    Качество фильма видео: WEBRip
    Информация о видеокодек: MPEG-4 AVC/H.264
    Битрейт видео: 3076 Кбит/сек
    Размер скачиваемого торрента кадра: 1920x796
    Информация о звукекодек: AC3 5.1
    Битрейт аудио: 254 Кбит/сек
    MediaInfo:

    Общее
    Полное имя : Terminator Genisys_rus #2 (2015).mp4
    Формат : MPEG-4
    Профиль формата : Base Media
    Идентификатор кодека : isom
    Размер файла : 57, 4 Мбайт
    Продолжительность : 2 м. 24 с.
    Общий поток : 3335 Кбит/сек
    Программа кодирования : Lavf56.19.100
    Видео
    Идентификатор : 1
    Формат : AVC
    Формат/Информация : Advanced Video Codec
    Профиль формата : High@L4
    Параметр CABAC формата : Да
    Параметр ReFrames формата : 2 кадра
    Идентификатор кодека : avc1
    Идентификатор кодека/Информация : Advanced Video Coding
    Продолжительность : 2 м. 24 с.
    Битрейт : 3076 Кбит/сек
    Ширина : 1920 пикселей
    Высота : 796 пикселей
    Соотношение сторон : 2, 40: 1
    Режим частоты кадров : Постоянный
    Частота кадров : 25, 000 кадров/сек
    Цветовое пространство : YUV
    Субдискретизация насыщенности : 4: 2: 0
    Битовая глубина : 8 бит
    Тип развёртки : Прогрессивная
    Бит/(Пиксели*Кадры) : 0.081
    Размер потока : 53, 0 Мбайт (92%)
    Аудио
    Идентификатор : 2
    Формат : AAC
    Формат/Информация : Advanced Audio Codec
    Профиль формата : LC
    Идентификатор кодека : 40
    Продолжительность : 2 м. 24 с.
    Вид битрейта : Постоянный
    Битрейт : 254 Кбит/сек
    Каналы : 2 канала
    Расположение каналов : Front: L R
    Частота : 44, 1 КГц
    Метод сжатия : С потерями
    Размер потока : 4, 37 Мбайт (8%)

    Скриншоты



    Скриншоты



    Залил: Jokerzv

    Онлайн видео Терминатор: Генезис


    Размер скачиваемого торрента: 57.44 MB (60229122 Bytes)

    Терминатор: Генезис/Terminator: Genisys (2015) WEBRip 1080p | Трейлер
    загрузка...
    Рейтинг →
     (голосов: 1, оценка 5/5, голосовать можно 1 раз )

    Другие торренты по теме:



      Комментарии (0):

      Информация

      Информация

        Посетители, находящиеся в группе Гости, не могут оставлять комментарии в данной новости.

        ↓ Меню



        ↓ Опрос

        А Вы добавили сайт в закладки?
        Да
        Не


        Top 10 за неделю (Фильмы)