.
Авторизация | Регистрация
Хочешь лучшие торренты? Добавь свой email!
Добавить
» » Захват горы тигра / The Taking of Tiger Mountain (2014) BDRip 1080p | L1 торрент скачать бесплатно




    Захват горы тигра / The Taking of Tiger Mountain (2014) BDRip 1080p | L1 торрент скачать бесплатно

    Опубликовал: Админ | Дата: 25-05-2015, 18:01 | Просмотров: 155



    Детально о кино
    Русское название: Захват горы тигра
    Русское название в мировом прокате: The Taking of Tiger Mountain
    Создали в: 2014
    Категория жанра: Драма, боевик
    Главный режиссер: Цуй Харк

    Актеры
    Чжан Ханьюй, Кенни Лин, Лия Тун, Тони Люн Ка Фай, Хань Гэн, Миу Це, Ю Нан


    Сюжет фильма
    В канун празднования Нового года добропорядочный гражданин Китая застает по телевизору показ Ловкого захвата Тигровой горы и загорается желанием побольше узнать о событиях, легших в основу разудалого коммунистического мюзикла. Затем действие переносится в заснеженный 1946-й год, когда отряд китайских солдат во главе с 203-м оказывается на территории подвластной Банде Тигровой горы. Лидер банды по прозвищу Ястреб закрепился в неприступном форте, окруженный сотнями подчиненных, в распоряжении которых значительный арсенал. Ястреб мечтает заполучить в свое распоряжение три легендарных карты, обладая которыми его банда сможет занять доминирующее положение в стране и контролировать все окрестные территории. Само собой, ему надо помешать, поэтому один из солдат решает проникнуть на вражескую базу и подготовить все к неожиданному нападению, которое приведет к ликвидации бандитов. Он прикидывается членом конкурирующей банды и начинает втираться в доверие к Ястребу.



    Снималось в: Китай, Гонконг, Baidu, Bona Film Group, Huaxia Film Distribution Company, Youku Original
    Время просмотра: 02: 22: 41
    Перевод текста: Любительский (одноголосый, закадровый)

    Файл
    Качество фильма: BDRip 1080p
    Тип видео: MKV
    Информация о видео: MPEG4/AVC, 18.0 Мбит/сек, 1920х1036 (1.85: 1), 24.000 кадра/сек
    Информация о звуке 1: AC3, 2 канала, 384 Кбит/сек | Русский
    Информация о звуке 2: AC3, 6 каналов, 640 Кбит/сек | Китайский
    Субтитры: Английские
    Навигация по главам: Есть

    MediaInfo:
    Общее
    Уникальный идентификатор : 170345663322655378016459216351690944711 (0x802761A2B4F9E5298034939C6B16F0C7)
    Полное имя : The Taking of Tiger Mountain. (2014) BDRip 1080p.mkv
    Формат : Matroska
    Версия формата : Version 2
    Размер файла : 19, 0 Гбайт
    Продолжительность : 2 ч. 22 м.
    Общий поток : 19, 0 Мбит/сек
    Название фильма : The Taking of Tiger Mountain. 2014
    Дата кодирования : UTC 2015-05-25 10: 56: 28
    Программа кодирования : mkvmerge v5.8.0 (;No Sleep/Pillow;) built on Sep 2 2012 15: 37: 04
    Библиотека кодирования : libebml v1.2.3 + libmatroska v1.3.0

    Видео
    Идентификатор : 1
    Формат : AVC
    Формат/Информация : Advanced Video Codec
    Профиль формата : High@L4.1
    Параметр CABAC формата : Да
    Параметр ReFrames формата : 4 кадра
    Идентификатор кодека : V_MPEG4/ISO/AVC
    Продолжительность : 2 ч. 22 м.
    Битрейт : 18, 0 Мбит/сек
    Ширина : 1920 пикселей
    Высота : 1036 пикселей
    Соотношение сторон : 1, 85: 1
    Режим частоты кадров : Постоянный
    Частота кадров : 24, 000 кадра/сек
    Цветовое пространство : YUV
    Субдискретизация насыщенности : 4: 2: 0
    Битовая глубина : 8 бит
    Тип развёртки : Прогрессивная
    Бит/(Пиксели*Кадры) : 0.377
    Размер потока : 17, 6 Гбайт (93%)
    Заголовок : WiKi
    Библиотека кодирования : x264 core 142 r2431 ac76440
    Настройки программы : cabac=1/ref=4/deblock=1: 0: 0/analyse=0x3: 0x113/me=umh/subme=10/psy=1/psy_rd=1.05: 0.10/mixed_ref=1/me_range=48/chroma_me=1/trellis=2/8x8dct=1/cqm=0/deadzone=21, 11/fast_pskip=0/chroma_qp_offset=-2/threads=12/lookahead_threads=1/sliced_threads=0/nr=0/decimate=1/interlaced=0/bluray_compat=0/constrained_intra=0/bframes=6/b_pyramid=2/b_adapt=2/b_bias=0/direct=3/weightb=1/open_gop=0/weightp=2/keyint=250/keyint_min=24/scenecut=40/intra_refresh=0/rc=2pass/mbtree=0/bitrate=18000/ratetol=2.0/qcomp=0.70/qpmin=0/qpmax=69/qpstep=4/cplxblur=20.0/qblur=0.5/ip_ratio=1.40/pb_ratio=1.30/aq=2: 1.00
    Язык : Chinese
    Default : Да
    Forced : Нет

    Аудио #1
    Идентификатор : 2
    Формат : AC-3
    Формат/Информация : Audio Coding 3
    Расширение режима : CM (complete main)
    Параметр Endianness формата : Big
    Идентификатор кодека : A_AC3
    Продолжительность : 2 ч. 22 м.
    Вид битрейта : Постоянный
    Битрейт : 384 Кбит/сек
    Каналы : 2 канала
    Расположение каналов : Front: L R
    Частота : 48, 0 КГц
    Битовая глубина : 16 бит
    Метод сжатия : С потерями
    Размер потока : 392 Мбайт (2%)
    Заголовок : L1
    Язык : Russian
    Default : Да
    Forced : Нет

    Аудио #2
    Идентификатор : 3
    Формат : AC-3
    Формат/Информация : Audio Coding 3
    Расширение режима : CM (complete main)
    Параметр Endianness формата : Big
    Идентификатор кодека : A_AC3
    Продолжительность : 2 ч. 22 м.
    Вид битрейта : Постоянный
    Битрейт : 640 Кбит/сек
    Каналы : 6 каналов
    Расположение каналов : Front: L C R, Side: L R, LFE
    Частота : 48, 0 КГц
    Битовая глубина : 16 бит
    Метод сжатия : С потерями
    Размер потока : 653 Мбайт (3%)
    Заголовок : Original
    Язык : Chinese
    Default : Нет
    Forced : Нет

    Текст
    Идентификатор : 4
    Формат : UTF-8
    Идентификатор кодека : S_TEXT/UTF8
    Идентификатор кодека/Информация : UTF-8 Plain Text
    Заголовок : Full
    Язык : English
    Default : Нет
    Forced : Нет

    Меню
    00: 00: 00.000 : en: 00: 00: 00.000
    00: 10: 26.958 : en: 00: 10: 26.958
    00: 21: 32.667 : en: 00: 21: 32.667
    00: 27: 25.500 : en: 00: 27: 25.500
    00: 37: 25.458 : en: 00: 37: 25.458
    00: 50: 17.375 : en: 00: 50: 17.375
    00: 57: 28.024 : en: 00: 57: 28.024
    01: 04: 27.833 : en: 01: 04: 27.833
    01: 12: 00.958 : en: 01: 12: 00.958
    01: 20: 20.375 : en: 01: 20: 20.375
    01: 30: 42.667 : en: 01: 30: 42.667
    01: 36: 30.125 : en: 01: 36: 30.125
    01: 45: 57.583 : en: 01: 45: 57.583
    01: 51: 57.500 : en: 01: 51: 57.500
    01: 57: 50.250 : en: 01: 57: 50.250
    02: 08: 53.666 : en: 02: 08: 53.666



    Релиз подготовил:

    Онлайн видео Захват горы тигра


    Размер скачиваемого торрента: 18.96 GB (20356489068 Bytes)

    Захват горы тигра/The Taking of Tiger Mountain (2014) BDRip 1080p | L1
    загрузка...
    Рейтинг →
     (голосов: 1, оценка 5/5, голосовать можно 1 раз )

    Другие торренты по теме:

  • Захват горы тигра (Взятие горы Вэйхушань) / The Taking of Tiger Mountain / 2014 / ЛО / 3D (HSBS) / BDRip (1080p)
  • Захват горы тигра / The Taking of Tiger Mountain (2014) BDRip 720p | L1
  • Захват горы тигра / The Taking of Tiger Mountain (2014) HDRip | L1


    • Комментарии (0):

      Информация

      Информация

        Посетители, находящиеся в группе Гости, не могут оставлять комментарии в данной новости.

        ↓ Меню



        ↓ Опрос

        А Вы добавили сайт в закладки?
        Да
        Не


        Top 10 за месяц (Фильмы)