.
Авторизация | Регистрация
Хочешь лучшие торренты? Добавь свой email!
Добавить
» » Синистер 2 / Sinister 2 (2015) WEBRip 1080p | Трейлер торрент скачать бесплатно




    Синистер 2 / Sinister 2 (2015) WEBRip 1080p | Трейлер торрент скачать бесплатно

    Опубликовал: Админ | Дата: 26-05-2015, 00:01 | Просмотров: 427


    Создали в: 2015
    Создали в: США
    Категория жанра: ужасы
    Перевод текста: Дублированный
    Главный режиссер: Киран Фой
    Продюсеры: Джейсон Блум, Скотт Дерриксон, Брайан Кэвэна-Джонс
    Актеры: Шаннин Соссамон, Джеймс Рэнсон, Тейт Эллингтон, Николас Кинг, Кейден М. Фриц, Лукас Джейн Зуманн, Дэльфин Понтвие, Лайла Хейли, Джейден Клейн, Роберт Дэниэл Слоун
    Описание фильма:
    Молодая мать и ее сыновья-близнецы переезжают в загородный дом. Но они и не подозревали, что этот дом помечен смертью.
    Дата мировой премьеры: 20 августа 2015
    Дата российской премьеры: 20 августа 2015

    Время просмотра: 00: 02: 30
    Качество фильма видео: WEBRip
    Информация о видеокодек: MPEG-4 AVC/H.264
    Битрейт видео: 2518 Кбит/сек
    Размер скачиваемого торрента кадра: 1920x1080
    Информация о звукекодек: AC3 5.1
    Битрейт аудио: 254 Кбит/сек
    MediaInfo:

    Общее
    Полное имя : Синистер 2 Русский Трейлер (2015).mp4
    Формат : MPEG-4
    Профиль формата : Base Media
    Идентификатор кодека : isom
    Размер файла : 49, 8 Мбайт
    Продолжительность : 2 м. 30 с.
    Общий поток : 2777 Кбит/сек
    Программа кодирования : Lavf56.19.100
    Видео
    Идентификатор : 1
    Формат : AVC
    Формат/Информация : Advanced Video Codec
    Профиль формата : High@L4
    Параметр CABAC формата : Да
    Параметр ReFrames формата : 2 кадра
    Идентификатор кодека : avc1
    Идентификатор кодека/Информация : Advanced Video Coding
    Продолжительность : 2 м. 30 с.
    Битрейт : 2518 Кбит/сек
    Ширина : 1920 пикселей
    Высота : 1080 пикселей
    Соотношение сторон : 16: 9
    Режим частоты кадров : Переменный
    Частота кадров : 23, 976 кадра/сек
    Минимальная частота кадров : 23, 974 кадра/сек
    Максимальная частота кадров : 23, 981 кадра/сек
    Цветовое пространство : YUV
    Субдискретизация насыщенности : 4: 2: 0
    Битовая глубина : 8 бит
    Тип развёртки : Прогрессивная
    Бит/(Пиксели*Кадры) : 0.051
    Размер потока : 45, 2 Мбайт (91%)
    Аудио
    Идентификатор : 2
    Формат : AAC
    Формат/Информация : Advanced Audio Codec
    Профиль формата : LC
    Идентификатор кодека : 40
    Продолжительность : 2 м. 30 с.
    Вид битрейта : Постоянный
    Битрейт : 254 Кбит/сек
    Каналы : 2 канала
    Расположение каналов : Front: L R
    Частота : 44, 1 КГц
    Метод сжатия : С потерями
    Размер потока : 4, 55 Мбайт (9%)

    Скриншоты



    Скриншоты



    Залил: Jokerzv

    Онлайн видео Синистер 2


    Размер скачиваемого торрента: 49.84 MB (52258618 Bytes)

    Синистер 2/Sinister 2 (2015) WEBRip 1080p | Трейлер
    загрузка...
    Рейтинг →
     (голосов: 1, оценка 4/5, голосовать можно 1 раз )

    Другие торренты по теме:

  • Синистер 2 / Sinister 2 (2015) BDRip 720p | Звук CAMRip
  • Синистер 2 / Sinister 2 (2015) BDRip-AVC от HELLYWOOD | НТВ+
  • Синистер 2 / Sinister 2 (2015) BDRip от HQCLUB | D | iTunes
  • Синистер 2 (2015) HDRip


    • Комментарии (0):

      Информация

      Информация

        Посетители, находящиеся в группе Гости, не могут оставлять комментарии в данной новости.

        ↓ Меню



        ↓ Опрос

        А Вы добавили сайт в закладки?
        Да
        Не


        Top 10 за месяц (Фильмы)