.
Авторизация | Регистрация
» » Большой куш / Snatch (2000) BDRip 720p от KinoGadget | iPad скачать торрент бесплатно




    Большой куш / Snatch (2000) BDRip 720p от KinoGadget | iPad скачать торрент бесплатно

    Опубликовал: Админ | Дата: 27-05-2015, 15:02 | Просмотров: 123


    Создали в: 2000
    Снималось в: Великобритания, США
    Категория жанра: комедия, криминал
    Время просмотра: 01: 42: 46
    Перевод текста: Профессиональный многоголосый, авторский (Рябов, Живов, Пучков, Гаврилов)
    Главный режиссер: Гай Ричи

    Актеры
    Джейсон Стэйтем, Брэд Питт, Бенисио Дель Торо, Стивен Грэм, Алан Форд, Деннис Фарина, Раде Шербеджия, Винни Джонс, Джейсон Флеминг, Майк Рейд, Робби Ги, Ленни Джеймс, Юэн Бремнер, Эд, Уильям Бек, Энди Бекуив, Джейсон Бакхэм, Мики Кентвелл
    Описание: Четырехпалый Френки должен был переправить краденый алмаз из Англии в США своему боссу Эви. Но вместо этого герой попадает в эпицентр больших неприятностей. Сделав ставку на подпольном боксерском поединке, Френки попадает в круговорот весьма нежелательных событий.
    Вокруг героя и его груза разворачивается сложная интрига с участием множества колоритных персонажей лондонского дна — русского гангстера, троих незадачливых грабителей, хитрого боксера и угрюмого громилы грозного мафиози. Каждый норовит в одиночку сорвать Большой Куш.

    Информация о видео кодек: MPEG-4 AVC
    Качество фильма: BDRip 720p
    Параметры Видео: 1280x696, 23.976 fps; ~2 373 kbps avg
    Параметры Звука: 44.1 KHz, AAC, ~150.00 kbps avg, 2ch
    Тип видео: mp4
    Автор рипа:
    Релиз-группа:

    Meta Tags


    MI
    General
    Complete name : E: Bolshoy.kush.2000.P.BDRip.720p_KinoGadget.mp4
    Format : MPEG-4
    Format profile : Base Media
    Codec ID : isom
    File size : 2.36 GiB
    Duration : 1h 42mn
    Overall bit rate mode : Variable
    Overall bit rate : 3 293 Kbps
    Movie name : Большой куш
    Performer : Гай Ричи
    Genre : Comedy, Crime
    ContentType : Short Film
    Recorded date : 2000
    Encoded date : UTC 2015-05-26 17: 16: 08
    Tagged date : UTC 2015-05-26 17: 54: 07
    Cover : Yes
    ContentRating : mpaa|R|400|
    LongDeion : Четырехпалый Френки должен был переправить краденый алмаз из Англии в США своему боссу Эви. Но вместо этого герой попадает в эпицентр больших неприятностей. Сделав ставку на подпольном боксерском поединке, Френки попадает в круговорот весьма нежелательных событий.// Вокруг героя и его груза разворачивается сложная интрига с участием множества колоритных персонажей лондонского дна — русского гангстера, троих незадачливых грабителей, хитрого боксера и угрюмого громилы грозного мафиози. Каждый норовит в одиночку сорвать Большой Куш.
    HDVideo : Yes
    Video
    ID : 1
    Format : AVC
    Format/Info : Advanced Video Codec
    Format profile : High@L4.1
    Format settings, CABAC : Yes
    Format settings, ReFrames : 9 frames
    Codec ID : avc1
    Codec ID/Info : Advanced Video Coding
    Duration : 1h 42mn
    Bit rate : 2 373 Kbps
    Maximum bit rate : 8 816 Kbps
    Width : 1 280 pixels
    Height : 696 pixels
    Display aspect ratio : 1.85: 1
    Frame rate mode : Constant
    Frame rate : 23.976 fps
    Color space : YUV
    Chroma subsampling : 4: 2: 0
    Bit depth : 8 bits
    Scan type : Progressive
    Bits/(Pixel*Frame) : 0.111
    Stream size : 1.70 GiB (72%)
    Writing library : x264 core 146 r2538 121396c
    Encoding settings : cabac=1/ref=9/deblock=1: -1: -1/analyse=0x3: 0x133/me=umh/subme=9/psy=1/psy_rd=1.00: 0.20/mixed_ref=1/me_range=24/chroma_me=1/trellis=2/8x8dct=1/cqm=0/deadzone=21, 11/fast_pskip=1/chroma_qp_offset=-3/threads=3/lookahead_threads=1/sliced_threads=0/nr=0/decimate=1/interlaced=0/bluray_compat=0/constrained_intra=0/bframes=4/b_pyramid=2/b_adapt=2/b_bias=0/direct=3/weightb=1/open_gop=0/weightp=2/keyint=240/keyint_min=23/scenecut=40/intra_refresh=0/rc_lookahead=60/rc=crf/mbtree=1/crf=21.0/qcomp=0.60/qpmin=0/qpmax=69/qpstep=4/ip_ratio=1.40/aq=1: 1.00
    Encoded date : UTC 2015-05-26 09: 25: 30
    Tagged date : UTC 2015-05-26 17: 17: 51
    Audio #1
    ID : 2
    Format : AAC
    Format/Info : Advanced Audio Codec
    Format profile : LC
    Codec ID : 40
    Duration : 1h 42mn
    Bit rate mode : Variable
    Bit rate : 150 Kbps
    Maximum bit rate : 240 Kbps
    Channel count : 2 channels
    Channel positions : Front: L R
    Sampling rate : 44.1 KHz
    Compression mode : Lossy
    Stream size : 110 MiB (5%)
    Language : Russian
    Encoded date : UTC 2015-05-26 17: 16: 43
    Tagged date : UTC 2015-05-26 17: 17: 51
    Audio #2
    ID : 3
    Format : AAC
    Format/Info : Advanced Audio Codec
    Format profile : LC
    Codec ID : 40
    Duration : 1h 42mn
    Bit rate mode : Variable
    Bit rate : 150 Kbps
    Maximum bit rate : 223 Kbps
    Channel count : 2 channels
    Channel positions : Front: L R
    Sampling rate : 44.1 KHz
    Compression mode : Lossy
    Stream size : 110 MiB (5%)
    Language : Russian
    Encoded date : UTC 2015-05-26 17: 16: 55
    Tagged date : UTC 2015-05-26 17: 17: 51
    Audio #3
    ID : 4
    Format : AAC
    Format/Info : Advanced Audio Codec
    Format profile : LC
    Codec ID : 40
    Duration : 1h 42mn
    Bit rate mode : Variable
    Bit rate : 150 Kbps
    Maximum bit rate : 223 Kbps
    Channel count : 2 channels
    Channel positions : Front: L R
    Sampling rate : 44.1 KHz
    Compression mode : Lossy
    Stream size : 110 MiB (5%)
    Language : Russian
    Encoded date : UTC 2015-05-26 17: 17: 07
    Tagged date : UTC 2015-05-26 17: 17: 51
    Audio #4
    ID : 5
    Format : AAC
    Format/Info : Advanced Audio Codec
    Format profile : LC
    Codec ID : 40
    Duration : 1h 42mn
    Bit rate mode : Variable
    Bit rate : 150 Kbps
    Maximum bit rate : 220 Kbps
    Channel count : 2 channels
    Channel positions : Front: L R
    Sampling rate : 44.1 KHz
    Compression mode : Lossy
    Stream size : 110 MiB (5%)
    Language : Russian
    Encoded date : UTC 2015-05-26 17: 17: 19
    Tagged date : UTC 2015-05-26 17: 17: 51
    Audio #5
    ID : 6
    Format : AAC
    Format/Info : Advanced Audio Codec
    Format profile : LC
    Codec ID : 40
    Duration : 1h 42mn
    Bit rate mode : Variable
    Bit rate : 150 Kbps
    Maximum bit rate : 222 Kbps
    Channel count : 2 channels
    Channel positions : Front: L R
    Sampling rate : 44.1 KHz
    Compression mode : Lossy
    Stream size : 110 MiB (5%)
    Language : Russian
    Encoded date : UTC 2015-05-26 17: 17: 31
    Tagged date : UTC 2015-05-26 17: 17: 51
    Audio #6
    ID : 7
    Format : AAC
    Format/Info : Advanced Audio Codec
    Format profile : LC
    Codec ID : 40
    Duration : 1h 42mn
    Bit rate mode : Variable
    Bit rate : 150 Kbps
    Maximum bit rate : 214 Kbps
    Channel count : 2 channels
    Channel positions : Front: L R
    Sampling rate : 44.1 KHz
    Compression mode : Lossy
    Stream size : 110 MiB (5%)
    Language : English
    Encoded date : UTC 2015-05-26 17: 17: 43
    Tagged date : UTC 2015-05-26 17: 17: 51

    Скриншоты


    Залил: KinoGadget

    Онлайн видео Большой куш


    Размер скачиваемого торрента: 2.36 GB (2538740996 Bytes)

    Большой куш/Snatch (2000) BDRip 720p от KinoGadget | iPad
    загрузка...
    Рейтинг →
     (голосов: 1, оценка 5/5, голосовать можно 1 раз )

    Другие торренты по теме:

  • Большой куш / Snatch (2000) BDRip-AVC | iPad торрент скачать бесплатно
  • Большой куш / Snatch (2000) HDRip-AVC | A торрент скачать бесплатно
  • Футурама: Большой куш Бендера! / Futurama: Benders Big Score (2007) WEB-DLRip | P2 торрент скачать бесплатно
  • Большой куш / Snatch (2000) BDRip-AVC от 0ptimus | P, A скачать через торрент бесплатно
  • Большой куш / Snatch (2000) HDRip-AVC | P2 скачать через торрент бесплатно
  • Большой куш для маленькой леди / A Big Hand for the Little Lady (1966) DVDRip от egoleshik | A торрент скачать бесплатно
  • Большой куш для маленькой леди / A Big Hand for the Little Lady (1966) DVDRip от egoleshik | P, A скачать через торрент бесплатно
  • Большой куш / Snatch (2000) BDRip 1080p от R.G. HD-Films | 60 fp скачать через торрент бесплатно


    • Комментарии (0):

      Информация

      Информация

        Посетители, находящиеся в группе Гости, не могут оставлять комментарии в данной новости.

        ↓ Меню



        ↓ Опрос

        А Вы добавили сайт в закладки?
        Да
        Не


        Top 10 за неделю (Фильмы)