.
Авторизация | Регистрация
» » Гнев / Tokarev (2014) BDRip 1080p | Лицензия скачать торрент бесплатно




    Гнев / Tokarev (2014) BDRip 1080p | Лицензия скачать торрент бесплатно

    Опубликовал: Админ | Дата: 28-05-2015, 09:01 | Просмотров: 157


    Русское название: Гнев (Токарев)
    Русское название в мировом прокате: Tokarev
    Создали в: 2014
    Категория жанра: Боевик, триллер, криминал
    Снималось в: США, Франция, Hannibal Pictures, Tokarev Production
    Главный режиссер: Пако Кабесас

    Актеры
    Николас Кейдж, Рэйчел Николс, Макс Райан, Майкл МакГрэйди, Петер Стормаре, Павел Личникофф, Патрис Колс, Макс Фаулер, Обри Пиплз, Джек Фалахи, Уэстон Кейдж, Дэнни Гловер, Рон Гоулман, Майкл Пападжон, Амир Занди, Джон Даннелли, Гаррисон Тайлер, Пол Сэмпсон, Кевин Лавелл Янг, Елена Санчес

    Сюжет фильма
    Оставив вечером свою дочь дома в компании друзей, Пол отправляется по делам. Однако срочно вернуться его заставляет экстренная ситуация – группа вооруженных преступников прорвалась в дом и похитила его ребенка. Вскоре девочку обнаружили мертвой... Весь мир Пола рушится, единственной зацепкой в этой мрачной истории является пистолет Токарев. Несмотря на настойчивые уговоры офицера полиции и авторитетного мафиози, Магуайер не может оставить преступников безнаказанными и собирается мстить за свою дочь. Заручившись поддержкой лучших друзей, таких же, как и он сам, бывших гангстеров, Пол принимается за дело...
    Файл
    Качество фильма: BDRip (1080p)
    Информация о видео: MPEG-4 AVC, 16000 Кбит/с, 1920x816
    Информация о звуке: Русский (AC3, 6 ch, 640 Кбит/с), (DTS, 6 ch, 1509 Кбит/с), английский (DTS, 6 ch, 1509 Кбит/с)
    Размер скачиваемого торрента: 13.49 ГБ
    Время просмотра: 01: 38: 27
    Перевод текста: Дублированный лицензия
    Субтитры: Русские, английские
    Семпл
    MI
    Общее
    Уникальный идентификатор : 204149774046047940651918996867449991962 (0x9995D0F8DFC42068987E569207D9B31A)
    Полное имя : D: Tokarev 2014 1080p BluRay DTS x264-DON.mkv
    Формат : Matroska
    Версия формата : Version 2
    Размер файла : 13, 5 Гбайт
    Продолжительность : 1 ч. 38 м.
    Общий поток : 19, 6 Мбит/сек
    Название фильма : Tokarev 2014 1080p
    Дата кодирования : UTC 2015-05-28 02: 43: 58
    Программа кодирования : mkvmerge v7.9.0 (;Birds;) 64bit
    Библиотека кодирования : libebml v1.3.1 + libmatroska v1.4.2
    DURATION : 01: 38: 26.944000000
    NUMBER_OF_FRAMES : 184592
    NUMBER_OF_BYTES : 472555520
    _STATISTICS_WRITING_APP : mkvmerge v7.9.0 (;Birds;) 64bit
    _STATISTICS_WRITING_DATE_UTC : 2015-05-28 02: 43: 58
    _STATISTICS_TAGS : BPS DURATION NUMBER_OF_FRAMES NUMBER_OF_BYTES
    Видео
    Идентификатор : 1
    Формат : AVC
    Формат/Информация : Advanced Video Codec
    Профиль формата : High@L4.1
    Параметр CABAC формата : Да
    Параметр ReFrames формата : 5 кадров
    Идентификатор кодека : V_MPEG4/ISO/AVC
    Продолжительность : 1 ч. 38 м.
    Битрейт : 16, 0 Мбит/сек
    Ширина : 1920 пикселей
    Высота : 816 пикселей
    Соотношение сторон : 2, 35: 1
    Режим частоты кадров : Постоянный
    Частота кадров : 23, 976 кадра/сек
    Цветовое пространство : YUV
    Субдискретизация насыщенности : 4: 2: 0
    Битовая глубина : 8 бит
    Тип развёртки : Прогрессивная
    Бит/(Пиксели*Кадры) : 0.426
    Размер потока : 10, 7 Гбайт (79%)
    Заголовок : Tokarev 2014 1080p
    Библиотека кодирования : x264 core 142 r2409+42 04be48a tMod 8-bit@all X86_64
    Настройки программы : cabac=1/ref=5/deblock=1: -3: -3/analyse=0x3: 0x133/me=umh/subme=11/psy=1/fade_compensate=0.00/psy_rd=1.10: 0.00/mixed_ref=1/me_range=40/chroma_me=1/trellis=2/8x8dct=1/cqm=0/deadzone=21, 11/fast_pskip=0/chroma_qp_offset=-2/threads=6/lookahead_threads=1/sliced_threads=0/nr=0/decimate=0/interlaced=0/bluray_compat=0/constrained_intra=0/fgo=0/bframes=10/b_pyramid=2/b_adapt=2/b_bias=0/direct=3/weightb=1/open_gop=0/weightp=2/keyint=250/keyint_min=23/scenecut=40/intra_refresh=0/rc_lookahead=60/rc=2pass/mbtree=0/bitrate=16000/ratetol=3.0/qcomp=0.70/qpmin=0: 0: 0/qpmax=69: 69: 69/qpstep=4/cplxblur=20.0/qblur=0.5/vbv_maxrate=50000/vbv_bufsize=62500/nal_hrd=none/filler=0/ip_ratio=1.40/pb_ratio=1.20/aq=4: 0.80/aq-sensitivity=10.00/aq-factor=1.00: 1.00: 1.00/aq2=0/aq3=0
    Язык : English
    Default : Да
    Forced : Нет
    Цветовой диапазон : Limited
    Основные цвета : BT.709
    Характеристики трансфера : BT.709
    Коэффициенты матрицы : BT.709
    DURATION : 01: 38: 27.902000000
    NUMBER_OF_FRAMES : 141648
    NUMBER_OF_BYTES : 11785932316
    _STATISTICS_WRITING_APP : mkvmerge v7.9.0 (;Birds;) 64bit
    _STATISTICS_WRITING_DATE_UTC : 2015-05-28 02: 43: 58
    _STATISTICS_TAGS : BPS DURATION NUMBER_OF_FRAMES NUMBER_OF_BYTES
    Аудио #1
    Идентификатор : 2
    Формат : DTS
    Формат/Информация : Digital Theater Systems
    Режим : 16
    Параметр Endianness формата : Big
    Идентификатор кодека : A_DTS
    Продолжительность : 1 ч. 38 м.
    Вид битрейта : Постоянный
    Битрейт : 1509 Кбит/сек
    Каналы : 6 каналов
    Расположение каналов : Front: L C R, Side: L R, LFE
    Частота : 48, 0 КГц
    Битовая глубина : 24 бит
    Метод сжатия : С потерями
    Размер потока : 1, 04 Гбайт (8%)
    Язык : Russian
    Default : Да
    Forced : Нет
    Аудио #2
    Идентификатор : 3
    Формат : AC-3
    Формат/Информация : Audio Coding 3
    Расширение режима : CM (complete main)
    Параметр Endianness формата : Big
    Идентификатор кодека : A_AC3
    Продолжительность : 1 ч. 38 м.
    Вид битрейта : Постоянный
    Битрейт : 640 Кбит/сек
    Каналы : 6 каналов
    Расположение каналов : Front: L C R, Side: L R, LFE
    Частота : 48, 0 КГц
    Метод сжатия : С потерями
    Размер потока : 451 Мбайт (3%)
    Язык : Russian
    Default : Нет
    Forced : Нет
    Аудио #3
    Идентификатор : 4
    Формат : DTS
    Формат/Информация : Digital Theater Systems
    Режим : 16
    Параметр Endianness формата : Big
    Идентификатор кодека : A_DTS
    Продолжительность : 1 ч. 38 м.
    Вид битрейта : Постоянный
    Битрейт : 1509 Кбит/сек
    Каналы : 6 каналов
    Расположение каналов : Front: L C R, Side: L R, LFE
    Частота : 48, 0 КГц
    Битовая глубина : 24 бит
    Метод сжатия : С потерями
    Размер потока : 1, 04 Гбайт (8%)
    Заголовок : DTS Core 5.1 @ 1.5 Mbps
    Язык : English
    Default : Нет
    Forced : Нет
    Текст #1
    Идентификатор : 5
    Формат : UTF-8
    Идентификатор кодека : S_TEXT/UTF8
    Идентификатор кодека/Информация : UTF-8 Plain Text
    Язык : Russian
    Default : Нет
    Forced : Нет
    Текст #2
    Идентификатор : 6
    Формат : UTF-8
    Идентификатор кодека : S_TEXT/UTF8
    Идентификатор кодека/Информация : UTF-8 Plain Text
    Язык : English
    Default : Нет
    Forced : Нет
    Меню
    00: 00: 00.000 : en: Chapter 1
    00: 08: 35.598 : en: Chapter 2
    00: 16: 44.295 : en: Chapter 3
    00: 24: 59.998 : en: Chapter 4
    00: 37: 21.448 : en: Chapter 5
    00: 42: 16.200 : en: Chapter 6
    00: 48: 20.356 : en: Chapter 7
    00: 55: 27.032 : en: Chapter 8
    01: 07: 48.731 : en: Chapter 9
    01: 13: 20.146 : en: Chapter 10
    01: 19: 58.711 : en: Chapter 11
    01: 27: 23.071 : en: Chapter 12

    Скриншоты


    Размер скачиваемого торрента: 13.49 GB (14489641864 Bytes)

    Гнев/Tokarev (2014) BDRip 1080p | Лицензия
    загрузка...
    Рейтинг →
     (голосов: 1, оценка 5/5, голосовать можно 1 раз )

    Другие торренты по теме:

  • Гроздья гнева / The Grapes of Wrath (1940) BDRip от NovaLan торрент скачать бесплатно
  • Гнев / Man on Fire (2004) HDRip от Scarabey | D Sub торрент скачать бесплатно
  • Управление гневом / Anger Management (2013) HDTVRip 720p | LostFilm торрент скачать бесплатно
  • Агирре, Гнев Божий / Aguirre, der Zorn Gottes (1972) BDRip-AVC от Тorrent-Хzona торрент скачать бесплатно
  • Энчантия: Гнев Королевы Фениксов / Enchantia: Wrath of the Phoenix Queen CE (2013) PC торрент скачать бесплатно
  • OST - Гнев / Man on Fire (2004) MP3 торрент скачать бесплатно
  • Боги Гнева / Deus Irae (2010) DVDRip | L1 торрент скачать бесплатно
  • Звездный путь 2: Гнев Хана / Star Trek: The Wrath of Khan (1982) BDRip от HQCLUB торрент скачать бесплатно


    • Комментарии (0):

      Информация

      Информация

        Посетители, находящиеся в группе Гости, не могут оставлять комментарии в данной новости.

        ↓ Меню



        ↓ Опрос

        А Вы добавили сайт в закладки?
        Да
        Не


        Top 10 за неделю (Фильмы)