.
Авторизация | Регистрация
» » Спасение / The Salvation (2014) DVD9 от New-Team | Лицензия скачать торрент бесплатно




    Спасение / The Salvation (2014) DVD9 от New-Team | Лицензия скачать торрент бесплатно

    Опубликовал: Админ | Дата: 28-05-2015, 10:54 | Просмотров: 83


    Детально о кино
    Русское название: Спасение
    Русское название в мировом прокате: The Salvation
    Создали в: 2014
    Категория жанра: драма, вестерн
    Главный режиссер: Кристиан Левринг/Kristian Levring

    Актеры
    Мадс Миккельсен, Ева Грин, Джеффри Дин Морган, Эрик Кантона, Микаэл Персбрандт, Дуглас Хеншэлл, Майкл Рэймонд-Джеймс, Джонатан Прайс, Александр Арнольд, Нанна Оланд Фабрициус, Токе Бьярке, Шон Майкл, Карл Нель, Кобус Суэйнпул, Хосе Домингос, Сиван Рафаэли, Ванесса Кук, Грант Суэнби, Тео Геденхайс, Сьюзэн Дэнфорд

    Сюжет фильма

    Джон, фермер, чья семья убита, дает клятву отомстить, выслеживает и наказывает убийцу. Его действия запускают цепочку насилия: лидер местной банды со своими напарниками решает расправиться с Джоном и его деревней.

    Снималось в: Дания, Великобритания, ЮАР, Швеция, Бельгия
    Киностудия: Danmarks Radio (DR), Det Danske Filminstitut, F.I.L.M.S., Film i V?st, Forward Films, Nordisk Film Distribution, Nordisk Film- TV-Fond, Programme MEDIA de la Communaut? Europ?enne, Spier Films, The Department of Trade and Industry of South Africa, TrustNordisk, Zentropa Entertainments
    Время просмотра: 01: 28: 15
    Перевод текста: Профессиональный (дублированный) Лицензия
    Файл
    Кодек для видео: MPEG2
    Качество фильма: DVD9 R5
    Информация о видео: PAL 16: 9 (720x576(0.674)) MPEG Video, 25, 000 кадр/сек, 6992 Кбит/сек
    Информация о звуке:
    Информация о звуке #1: Russian (Dolby AC3, 6 ch) 384 Кбит/сек, 48, 0 КГц
    Информация о звуке #2: English (Dolby AC3, 6 ch) 384 Кбит/сек, 48, 0 КГц
    Субтитры: русские
    DVDInfo
    Title: Рабочий
    Size: 5.37 Gb ( 5 629 722 KBytes ) - DVD-9
    Enabled regions: 1, 2, 3, 4, 5, 6, 7, 8
    VTS_01 :
    Play Length: 00: 00: 10
    Video: PAL 16: 9 (720x576) VBR, Auto PanScan
    VTS_02 :
    Play Length: 00: 00: 07
    Video: PAL 16: 9 (720x576) VBR, Auto PanScan
    Audio:
    English (Dolby AC3, 6 ch)
    VTS_03 :
    Play Length: 00: 02: 22
    Video: PAL 16: 9 (720x576) VBR, Auto PanScan
    Audio:
    Russian (Dolby AC3, 6 ch)
    Russian (Dolby AC3, 6 ch)
    VTS_04 :
    Play Length: 00: 01: 49
    Video: PAL 16: 9 (720x576) VBR, Auto PanScan
    Audio:
    Russian (Dolby AC3, 2 ch)
    English (Dolby AC3, 2 ch)
    VTS_05 :
    Play Length: 00: 01: 56
    Video: PAL 16: 9 (720x576) VBR, Auto PanScan
    Audio:
    Russian (Dolby AC3, 6 ch)
    Russian (Dolby AC3, 6 ch)
    VTS_06 :
    Play Length: 00: 01: 34
    Video: PAL 16: 9 (720x576) VBR, Auto PanScan
    Audio:
    Russian (Dolby AC3, 2 ch)
    Italiano (Dolby AC3, 2 ch)
    VTS_07 :
    Play Length: 00: 02: 17
    Video: PAL 16: 9 (720x576) VBR, Auto PanScan
    Audio:
    Russian (Dolby AC3, 6 ch)
    Russian (Dolby AC3, 6 ch)
    VTS_08 :
    Play Length: 01: 28: 15
    Video: PAL 16: 9 (720x576) VBR, Auto PanScan, Auto Letterboxed
    Audio:
    Russian (Dolby AC3, 6 ch)
    English (Dolby AC3, 6 ch)
    Subtitles:
    Russian
    Russian
    Menu Video:
    PAL 16: 9 (720x576) VBR
    Auto PanScan, Auto Letterboxed
    Menu Subtitles:
    Not specified
    Menu English Language Unit :
    Root Menu
    MediaInfo
    Общее
    Полное имя : F: Новинки 2015Spasenie.2014.DVD9VIDEO_TSVTS_08_1.VOB
    Формат : MPEG-PS
    Размер файла : 1024 Мбайт
    Продолжительность : 18 м.
    Режим общего битрейта : Переменный
    Общий поток : 7918 Кбит/сек
    Видео
    Идентификатор : 224 (0xE0)
    Формат : MPEG Video
    Версия формата : Version 2
    Профиль формата : Main@Main
    Параметр BVOP формата : Да
    Параметр матрицы формата : По умолчанию
    Параметр GOP формата : M=3, N=12
    Продолжительность : 18 м.
    Вид битрейта : Переменный
    Битрейт : 6992 Кбит/сек
    Максимальный битрейт : 8500 Кбит/сек
    Ширина : 720 пикселей
    Высота : 576 пикселей
    Соотношение сторон : 16: 9
    Частота кадров : 25, 000 кадров/сек
    Стандарт вещания : PAL
    Цветовое пространство : YUV
    Субдискретизация насыщенности : 4: 2: 0
    Битовая глубина : 8 бит
    Тип развёртки : Прогрессивная
    Метод сжатия : С потерями
    Бит/(Пиксели*Кадры) : 0.674
    Временной код первого кадра : 01: 00: 00: 00
    Оригинал временного кода : Group of pictures t_head
    GOP, открыто/закрыто : Открыто
    GOP, открыто/закрыто на первом кадре : Закрыто
    Размер потока : 904 Мбайт (88%)
    Аудио #1
    Идентификатор : 189 (0xBD)-128 (0x80)
    Формат : AC-3
    Формат/Информация : Audio Coding 3
    Расширение режима : CM (complete main)
    Параметр Endianness формата : Big
    Режим смешивания : DVD-Video
    Продолжительность : 18 м.
    Вид битрейта : Постоянный
    Битрейт : 384 Кбит/сек
    Каналы : 6 каналов
    Расположение каналов : Front: L C R, Side: L R, LFE
    Частота : 48, 0 КГц
    Битовая глубина : 16 бит
    Метод сжатия : С потерями
    Размер потока : 49, 6 Мбайт (5%)
    Аудио #2
    Идентификатор : 189 (0xBD)-129 (0x81)
    Формат : AC-3
    Формат/Информация : Audio Coding 3
    Расширение режима : CM (complete main)
    Параметр Endianness формата : Big
    Режим смешивания : DVD-Video
    Продолжительность : 18 м.
    Вид битрейта : Постоянный
    Битрейт : 384 Кбит/сек
    Каналы : 6 каналов
    Расположение каналов : Front: L C R, Side: L R, LFE
    Частота : 48, 0 КГц
    Битовая глубина : 16 бит
    Метод сжатия : С потерями
    Размер потока : 49, 6 Мбайт (5%)
    Текст
    Идентификатор : 189 (0xBD)-33 (0x21)
    Формат : RLE
    Формат/Информация : Run-length encoding
    Режим смешивания : DVD-Video
    Задержка видео : 5 с. 40 мс.
    Скриншоты меню


    Скриншоты фильма



    Релиз подготовил:
    Залил: voovaz

    Онлайн видео Спасение


    Размер скачиваемого торрента: 5.37 GB (5764835328 Bytes)

    Спасение/The Salvation (2014) DVD9 от New-Team | Лицензия
    загрузка...
    Рейтинг →
     (голосов: 1, оценка 4/5, голосовать можно 1 раз )

    Другие торренты по теме:



      Комментарии (0):

      Информация

      Информация

        Посетители, находящиеся в группе Гости, не могут оставлять комментарии в данной новости.

        ↓ Меню



        ↓ Опрос

        А Вы добавили сайт в закладки?
        Да
        Не


        Top 10 за неделю (Фильмы)