.
Авторизация | Регистрация
Хочешь лучшие торренты? Добавь свой email!
Добавить
» » Хотел бы я быть здесь / Wish I Was Here (2014) BDRip 720p от KinoGadget | iPad торрент скачать бесплатно




    Хотел бы я быть здесь / Wish I Was Here (2014) BDRip 720p от KinoGadget | iPad торрент скачать бесплатно

    Опубликовал: Админ | Дата: 28-05-2015, 15:01 | Просмотров: 50


    Создали в: 2014
    Снималось в: США
    Категория жанра: драма, комедия
    Время просмотра: 01: 46: 33
    Перевод текста: Дублированный, Оригинал
    Главный режиссер: Зак Брафф

    Актеры
    Зак Брафф, Джош Гэд, Кейт Хадсон, Джим Парсонс, Джои Кинг, Эшли Грин, Мэнди Пэтинкин, Дональд Фэйзон, Джеймс Эйври, Майкл Уэстон, Пирс Гэнон, Александр Чаплин, Лесли Дэвид Бэйкер, Аллан Рич, Николь Галисия, Мэтт Уинстон
    Описание: История Айдана Блума — актера, отца и мужа, который в свои 35 лет все еще пытается найти себя, цель своей жизни. Уча жизни двух своих детей, Айдан постепенно обнаруживает некоторые части себя, которые он не мог найти раньше…

    Информация о видео кодек: MPEG-4 AVC
    Качество фильма: BDRip 720p
    Параметры Видео: 1280x536, 23.976 fps; ~1 211 kbps avg
    Параметры Звука: 44.1 KHz, AAC, ~149.00 kbps avg, 2ch
    Тип видео: mp4
    Автор рипа:
    Релиз-группа:

    Meta Tags


    MI
    General
    Complete name : E: Xotel_by_ya_byt_zdes.2014.D.BDRip.720p_KinoGadget.mp4
    Format : MPEG-4
    Format profile : Base Media
    Codec ID : isom
    File size : 1.13 GiB
    Duration : 1h 46mn
    Overall bit rate mode : Variable
    Overall bit rate : 1 520 Kbps
    Movie name : Хотел бы я быть здесь
    Performer : Зак Брафф
    Genre : Comedy, Drama
    ContentType : Short Film
    Recorded date : 2014
    Encoded date : UTC 2015-05-27 17: 16: 41
    Tagged date : UTC 2015-05-27 17: 44: 16
    Cover : Yes
    ContentRating : mpaa|R|400|
    LongDeion : История Айдана Блума — актера, отца и мужа, который в свои 35 лет все еще пытается найти себя, цель своей жизни. Уча жизни двух своих детей, Айдан постепенно обнаруживает некоторые части себя, которые он не мог найти раньше…
    HDVideo : Yes
    Video
    ID : 1
    Format : AVC
    Format/Info : Advanced Video Codec
    Format profile : High@L4.1
    Format settings, CABAC : Yes
    Format settings, ReFrames : 11 frames
    Codec ID : avc1
    Codec ID/Info : Advanced Video Coding
    Duration : 1h 46mn
    Bit rate : 1 211 Kbps
    Maximum bit rate : 8 076 Kbps
    Width : 1 280 pixels
    Height : 536 pixels
    Display aspect ratio : 2.40: 1
    Frame rate mode : Constant
    Frame rate : 23.976 fps
    Color space : YUV
    Chroma subsampling : 4: 2: 0
    Bit depth : 8 bits
    Scan type : Progressive
    Bits/(Pixel*Frame) : 0.074
    Stream size : 923 MiB (80%)
    Writing library : x264 core 146 r2538 121396c
    Encoding settings : cabac=1/ref=11/deblock=1: -1: -1/analyse=0x3: 0x133/me=umh/subme=9/psy=1/psy_rd=1.00: 0.20/mixed_ref=1/me_range=24/chroma_me=1/trellis=2/8x8dct=1/cqm=0/deadzone=21, 11/fast_pskip=1/chroma_qp_offset=-3/threads=3/lookahead_threads=1/sliced_threads=0/nr=0/decimate=1/interlaced=0/bluray_compat=0/constrained_intra=0/bframes=6/b_pyramid=2/b_adapt=2/b_bias=0/direct=3/weightb=1/open_gop=0/weightp=2/keyint=240/keyint_min=23/scenecut=40/intra_refresh=0/rc_lookahead=60/rc=crf/mbtree=1/crf=21.0/qcomp=0.60/qpmin=0/qpmax=69/qpstep=4/ip_ratio=1.40/aq=1: 1.00
    Encoded date : UTC 2015-05-27 15: 08: 08
    Tagged date : UTC 2015-05-27 17: 17: 22
    Audio #1
    ID : 2
    Format : AAC
    Format/Info : Advanced Audio Codec
    Format profile : LC
    Codec ID : 40
    Duration : 1h 46mn
    Bit rate mode : Variable
    Bit rate : 149 Kbps
    Maximum bit rate : 249 Kbps
    Channel count : 2 channels
    Channel positions : Front: L R
    Sampling rate : 44.1 KHz
    Compression mode : Lossy
    Stream size : 114 MiB (10%)
    Language : Russian
    Encoded date : UTC 2015-05-27 17: 17: 02
    Tagged date : UTC 2015-05-27 17: 17: 22
    Audio #2
    ID : 3
    Format : AAC
    Format/Info : Advanced Audio Codec
    Format profile : LC
    Codec ID : 40
    Duration : 1h 46mn
    Bit rate mode : Variable
    Bit rate : 149 Kbps
    Maximum bit rate : 266 Kbps
    Channel count : 2 channels
    Channel positions : Front: L R
    Sampling rate : 44.1 KHz
    Compression mode : Lossy
    Stream size : 114 MiB (10%)
    Language : English
    Encoded date : UTC 2015-05-27 17: 17: 12
    Tagged date : UTC 2015-05-27 17: 17: 22

    Скриншоты


    Залил: KinoGadget

    Онлайн видео Хотел бы я быть здесь


    Размер скачиваемого торрента: 1.13 GB (1214690661 Bytes)

    Хотел бы я быть здесь/Wish I Was Here (2014) BDRip 720p от KinoGadget | iPad
    загрузка...
    Рейтинг →
     (голосов: 1, оценка 5/5, голосовать можно 1 раз )

    Другие торренты по теме:

  • Хотел бы я быть здесь / Wish I Was Here (2014) TS
  • Хотел бы я быть здесь / Wish I Was Here (2014) BDRip-AVC от HELLYWOOD | Лицензия
  • Красивый, честный эмигрант в Австралии хотел бы жениться / Bello, onesto, emigrato Australia sposerebbe (1971) DVDRip-AVC от ExKinoRay | P


    • Комментарии (0):

      Информация

      Информация

        Посетители, находящиеся в группе Гости, не могут оставлять комментарии в данной новости.

        ↓ Меню



        ↓ Опрос

        А Вы добавили сайт в закладки?
        Да
        Не


        Top 10 за месяц (Фильмы)