.
Авторизация | Регистрация
» » Поклонник / The Boy Next Door (2015) BDRip 720p от KinoGadget | iPad скачать торрент бесплатно




    Поклонник / The Boy Next Door (2015) BDRip 720p от KinoGadget | iPad скачать торрент бесплатно

    Опубликовал: Админ | Дата: 28-05-2015, 15:01 | Просмотров: 103


    Создали в: 2015
    Снималось в: США
    Категория жанра: триллер
    Время просмотра: 01: 30: 41
    Перевод текста: Дублированный
    Главный режиссер: Роб Коэн

    Актеры
    Дженнифер Лопес, Райан Гузман, Иэн Нельсон, Джон Корбетт, Кристин Ченоуэт, Лекси Аткинс, Хилл Харпер, Джек Уоллес, Адам Хикс, Франсуа Чау, Бэйли Чейз, Кент Авенидо, Трэвис Шульдт, Брайан Махони, Рэкуэл Гарднер, Кари Пердю, Чад Баллард, Форрест Хоффман, Брэндон Раш, Кот Декстер
    Описание: Фильм рассказывает об учительнице литературы Клэр Петерсон. Клэр знает о том, что муж изменяет ей, но тянет с разводом.
    Однажды, в дом по соседству въезжает харизматичный 19-летний красавчик Ной, который начинает оказывать Клэр повышенное внимание. Поддавшись слабости, Клэр проводит с ним ночь. Но она и не подозревала, что в скором времени влечение Ноя к ней перерастет в опасную одержимость…

    Информация о видео кодек: MPEG-4 AVC
    Качество фильма: BDRip 720p
    Параметры Видео: 1280x534, 23.976 fps; ~1 914 kbps avg
    Параметры Звука: 44.1 KHz, AAC, ~150.00 kbps avg, 2ch
    Тип видео: mp4
    Автор рипа:
    Релиз-группа:

    Meta Tags


    MI
    General
    Complete name : E: Poklonnik.2015.D.BDRip.720p_KinoGadget.mp4
    Format : MPEG-4
    Format profile : Base Media
    Codec ID : isom
    File size : 1.31 GiB
    Duration : 1h 30mn
    Overall bit rate mode : Variable
    Overall bit rate : 2 071 Kbps
    Movie name : Поклонник
    Performer : Роб Коэн
    Genre : Thriller
    ContentType : Short Film
    Recorded date : 2015
    Encoded date : UTC 2015-05-27 17: 06: 22
    Tagged date : UTC 2015-05-27 17: 15: 52
    Cover : Yes
    ContentRating : mpaa|R|400|
    LongDeion : Фильм рассказывает об учительнице литературы Клэр Петерсон. Клэр знает о том, что муж изменяет ей, но тянет с разводом.// Однажды, в дом по соседству въезжает харизматичный 19-летний красавчик Ной, который начинает оказывать Клэр повышенное внимание. Поддавшись слабости, Клэр проводит с ним ночь. Но она и не подозревала, что в скором времени влечение Ноя к ней перерастет в опасную одержимость…
    HDVideo : Yes
    Video
    ID : 1
    Format : AVC
    Format/Info : Advanced Video Codec
    Format profile : High@L4.1
    Format settings, CABAC : Yes
    Format settings, ReFrames : 11 frames
    Codec ID : avc1
    Codec ID/Info : Advanced Video Coding
    Duration : 1h 30mn
    Bit rate : 1 914 Kbps
    Maximum bit rate : 12.1 Mbps
    Width : 1 280 pixels
    Height : 534 pixels
    Display aspect ratio : 2.40: 1
    Frame rate mode : Constant
    Frame rate : 23.976 fps
    Color space : YUV
    Chroma subsampling : 4: 2: 0
    Bit depth : 8 bits
    Scan type : Progressive
    Bits/(Pixel*Frame) : 0.117
    Stream size : 1.21 GiB (92%)
    Writing library : x264 core 146 r2538 121396c
    Encoding settings : cabac=1/ref=11/deblock=1: -1: -1/analyse=0x3: 0x133/me=umh/subme=9/psy=1/psy_rd=1.00: 0.20/mixed_ref=1/me_range=24/chroma_me=1/trellis=2/8x8dct=1/cqm=0/deadzone=21, 11/fast_pskip=1/chroma_qp_offset=-3/threads=3/lookahead_threads=1/sliced_threads=0/nr=0/decimate=1/interlaced=0/bluray_compat=0/constrained_intra=0/bframes=6/b_pyramid=2/b_adapt=2/b_bias=0/direct=3/weightb=1/open_gop=0/weightp=2/keyint=240/keyint_min=23/scenecut=40/intra_refresh=0/rc_lookahead=60/rc=crf/mbtree=1/crf=21.0/qcomp=0.60/qpmin=0/qpmax=69/qpstep=4/ip_ratio=1.40/aq=1: 1.00
    Encoded date : UTC 2015-05-27 15: 22: 33
    Tagged date : UTC 2015-05-27 17: 06: 59
    Audio
    ID : 2
    Format : AAC
    Format/Info : Advanced Audio Codec
    Format profile : LC
    Codec ID : 40
    Duration : 1h 30mn
    Bit rate mode : Variable
    Bit rate : 150 Kbps
    Maximum bit rate : 215 Kbps
    Channel count : 2 channels
    Channel positions : Front: L R
    Sampling rate : 44.1 KHz
    Compression mode : Lossy
    Stream size : 96.9 MiB (7%)
    Language : Russian
    Encoded date : UTC 2015-05-27 17: 06: 50
    Tagged date : UTC 2015-05-27 17: 06: 59

    Скриншоты


    Залил: KinoGadget

    Онлайн видео Поклонник


    Размер скачиваемого торрента: 1.31 GB (1408600407 Bytes)

    Поклонник/The Boy Next Door (2015) BDRip 720p от KinoGadget | iPad
    загрузка...
    Рейтинг →
     (голосов: 1, оценка 4/5, голосовать можно 1 раз )

    Другие торренты по теме:

  • Тайный поклонник / Secret Admirer (1985) DVDRip-AVC торрент скачать бесплатно
  • Брони: неожиданно взрослые поклонники Моих Маленьких Пони / Bronies: The Extremely Unexpected Adult Fans of My Little Pony (2012) WEB-DLRip-AVC торрент скачать бесплатно
  • Тайный поклонник / Secret Admirer (1985) HDTVRip-AVC | P2, L1 скачать через торрент бесплатно
  • Талант и поклонники (1978) DVDRip от MediaClub | КПК торрент скачать бесплатно
  • Поклонник / Парень из следующей двери / Роковая страсть (2015) HDRip скачать торрент бесплатно
  • Поклонник / The Boy Next Door (2015) WEBRip | L2 скачать через торрент бесплатно
  • Поклонник / The Boy Next Door (2015) HDRip | Чистый звук скачать торрент бесплатно
  • Поклонник / The Boy Next Door (2015) HDRip-AVC от ExKinoRay | Чистый звук скачать торрент бесплатно


    • Комментарии (0):

      Информация

      Информация

        Посетители, находящиеся в группе Гости, не могут оставлять комментарии в данной новости.

        ↓ Меню



        ↓ Опрос

        А Вы добавили сайт в закладки?
        Да
        Не


        Top 10 за неделю (Фильмы)