.
Авторизация | Регистрация
» » Спасение / The Salvation (2014) HDRip от AleksSin | D | Лицензия скачать торрент бесплатно




    Спасение / The Salvation (2014) HDRip от AleksSin | D | Лицензия скачать торрент бесплатно

    Опубликовал: Админ | Дата: 29-05-2015, 15:01 | Просмотров: 61


    Детально о кино
    Русское название: Спасение
    Русское название в мировом прокате: The Salvation
    Создали в: 2014
    Категория жанра: драма, вестерн
    Главный режиссер: Кристиан Левринг/Kristian Levring

    Актеры
    Мадс Миккельсен , Ева Грин , Джеффри Дин Морган , Эрик Кантона , Микаэл Персбрандт , Дуглас Хеншэлл , Майкл Рэймонд-Джеймс , Джонатан Прайс , Александр Арнольд , Нанна Оланд Фабрициус , Токе Бьярке , Шон Майкл

    Сюжет фильма

    Джон, фермер, чья семья убита, дает клятву отомстить, выслеживает и наказывает убийцу. Его действия запускают цепочку насилия: лидер местной банды со своими напарниками решает расправиться с Джоном и его деревней.

    Снималось в: Дания, Великобритания, ЮАР
    Киностудия: Forward Films, Nordisk Film Distribution, Det Danske Filminstitut
    Время просмотра: 01: 27: 56
    Перевод текста: Дублированный Лицензия
    Файл
    Кодек для видео: AVI (XviD)
    Качество фильма: HDRip (Исх. BDRip 720p)
    Информация о видео: 720x304 (2.37: 1), 25 fps, XviD build 73 ~1047 kbps avg, 0.19 bit/pixel
    Информация о звуке: 48 kHz, MPEG Layer 3, 2 ch, ~128.00 kbps avg
    Субтитры: нет
    Семпл
    MediaInfo

    Общее
    Полное имя : S: ФильмыСпасение. 2014. HDRip (AleksSin).avi
    Формат : AVI
    Формат/Информация : Audio Video Interleave
    Размер файла : 745 Мбайт
    Продолжительность : 1 ч. 27 м.
    Общий поток : 1185 Кбит/сек
    Программа кодирования : VirtualDubMod 1.5.10.3 | www.virtualdub-fr.org || (build 2550/release)
    Библиотека кодирования : VirtualDubMod build 2550/release
    Видео
    Идентификатор : 0
    Формат : MPEG-4 Visual
    Профиль формата : Advanced Simple@L5
    Параметр BVOP формата : 1
    Параметр QPel формата : Нет
    Параметр GMC формата : Без точки перехода
    Параметр матрицы формата : Выборочная
    Идентификатор кодека : XVID
    Идентификатор кодека/Подсказка : XviD
    Продолжительность : 1 ч. 27 м.
    Битрейт : 1047 Кбит/сек
    Ширина : 720 пикс.
    Высота : 304 пикс.
    Соотношение сторон : 2, 35: 1
    Частота кадров : 25, 000 кадр/сек
    Цветовое пространство : YUV
    Подвыборка цветности : 4: 2: 0
    Битовая глубина : 8 бит
    Тип развёртки : Прогрессивная
    Метод сжатия : С потерями
    Бит/(Пиксели*Кадры) : 0.191
    Размер потока : 659 Мбайт (88%)
    Библиотека кодирования : XviD 73
    Аудио
    Идентификатор : 1
    Формат : MPEG Audio
    Версия формата : Version 1
    Профиль формата : Layer 3
    Идентификатор кодека : 55
    Идентификатор кодека/Подсказка : MP3
    Продолжительность : 1 ч. 27 м.
    Вид битрейта : Постоянный
    Битрейт : 128 Кбит/сек
    Каналы : 2 канала
    Частота : 48, 0 КГц
    Метод сжатия : С потерями
    Размер потока : 80, 5 Мбайт (11%)
    Выравнивание : Соединение по промежуткам
    Продолжительность промежутка : 40 мс. (1, 00 видеокадр)
    Время предзагрузки промежутка : 504 ms
    Библиотека кодирования : LAME3.99r
    Залил: *AleksSin*

    Онлайн видео Спасение


    Размер скачиваемого торрента: 745.30 MB (781508608 Bytes)


    Спасение/The Salvation (2014) HDRip от AleksSin | D | Лицензия
    загрузка...
    Рейтинг →
     (голосов: 1, оценка 4/5, голосовать можно 1 раз )

    Другие торренты по теме:

  • Феи: Волшебное спасение / Tinker Bell and the Great Fairy Rescue (2010) BDRip 1080p торрент скачать бесплатно
  • Спасение / Moksha: Salvation (2001) SATRip от Files-x | P торрент скачать бесплатно
  • В надежде на спасение / Saving Hope (2012) WEB-DLRip | P торрент скачать бесплатно
  • Кладбище Обреченных: Спасение Неупокоенных Душ / Redemption Cemetery 4: Salvation of the Lost CE (2013) PC торрент скачать бесплатно
  • История любви. Спасение / Love Chronicles 3: Salvation CE (2013) PC торрент скачать бесплатно
  • Спасение генерала Яна / Saving General Yang (2013) HDRip-AVC от BTT-TEAM торрент скачать бесплатно
  • Большое призрачное спасение / The Great Ghost Rescue (2011) HDRip | L1 торрент скачать бесплатно
  • Отряд спасения / Rogue force (1998) DVDRip торрент скачать бесплатно


    • Комментарии (0):

      Информация

      Информация

        Посетители, находящиеся в группе Гости, не могут оставлять комментарии в данной новости.

        ↓ Меню



        ↓ Опрос

        А Вы добавили сайт в закладки?
        Да
        Не


        Top 10 за неделю (Фильмы)