.
Авторизация | Регистрация
» » Робин Гуд / Robin Hood (2010) BDRip 720p от HQ-ViDEO | Режиссерская версия | D скачать торрент бесплатно




    Робин Гуд / Robin Hood (2010) BDRip 720p от HQ-ViDEO | Режиссерская версия | D скачать торрент бесплатно

    Опубликовал: Админ | Дата: 29-05-2015, 15:03 | Просмотров: 126


    Робин Гуд Режиссерская версия/Robin Hood Director;s Cut (2010) BDRip 720p
    Релиз от HQ-ViDEO

    Детально о кино
    Русское название: Робин Гуд
    Русское название в мировом прокате: Robin Hood
    Создали в: 2010
    Категория жанра: боевик, драма, приключения
    Главный режиссер: Ридли Скотт /Ridley Scott/

    Актеры
    Рассел Кроу /Russell Crowe/, Кейт Бланшетт /Cate Blanchett/, Макс фон Сюдов /Max von Sydow/, Уильям Хёрт /William Hurt/, Марк Стронг /Mark Strong/, Оскар Айзек /Oscar Isaac/, Дэнни Хьюстон /Danny Huston/, Айлин Эткинс /Eileen Atkins/, Марк Эдди /Mark Addy/, Мэтью Макфейден /Matthew Macfadyen/...

    Сюжет фильма

    История лучника армии Ричарда Львиное Сердце, который борется против нормандских захватчиков и становится легендарным героем, известным под именем Робин Гуд.

    Снималось в: США, Великобритания
    Время просмотра: 02: 35: 48
    Перевод текста: Русский дублированный (Лицензия) + Оригинальная, английская дорожка
    Файл
    Кодек для видео: MKV, H.264
    Качество фильма: BDRip 720p (Source: Blu-ray Disc)
    Информация о видео: 6235 kbps; 0.379 bit/pixel; 1280 x 536; 2.35: 1; 23.976 fps
    Информация о звуке #1: AC3 Dolby Digital; 448.00 kbps, 6 Ch - DUB
    Информация о звуке #2: AC3 Dolby Digital; 448.00 kbps, 6 Ch - ENG
    Субтитры: Русские (форсированные), Английские.
    Субтитры: Русские (полные, SDH, форсированные), Английские (полные, SDH).(отдельно)
    Размер скачиваемого торрента: 7.92 GB
    SAMPLE/скачать с Яндекс Диск
    MediaInfo

    General
    Complete name : Robin.Gud.2010.DUAL.BDRip.720p.h264.AC3.-HQ-ViDEO.mkv
    Format : Matroska
    File size : 7.92 GiB
    Duration : 2h 35mn
    Overall bit rate : 7 276 Kbps
    Movie name : Robin Hood (2010)
    Encoded date : UTC 2010-10-05 05: 51: 12
    Writing application : mkvmerge v3.3.0 (;Language;) built on Mar 24 2010 14: 59: 24
    Writing library : libebml v0.8.0 + libmatroska v0.9.0
    Video
    ID : 1
    Format : AVC
    Format/Info : Advanced Video Codec
    Format profile : High@L4.1
    Format settings, CABAC : Yes
    Format settings, ReFrames : 6 frames
    Muxing mode : Container profile=Unknown@4.1
    Codec ID : V_MPEG4/ISO/AVC
    Duration : 2h 35mn
    Bit rate : 6 235 Kbps
    Width : 1 280 pixels
    Height : 536 pixels
    Display aspect ratio : 2.35: 1
    Frame rate : 23.976 fps
    Resolution : 8 bits
    Colorimetry : 4: 2: 0
    Scan type : Progressive
    Bits/(Pixel*Frame) : 0.379
    Stream size : 6.78 GiB (86%)
    Title : Encoded by GYN
    Audio #1
    ID : 2
    Format : AC-3
    Format/Info : Audio Coding 3
    Codec ID : A_AC3
    Duration : 2h 35mn
    Bit rate mode : Constant
    Bit rate : 448 Kbps
    Channel(s) : 6 channels
    Channel positions : Front: L C R, Surround: L R, LFE
    Sampling rate : 48.0 KHz
    Stream size : 499 MiB (6%)
    Title : DUB
    Language : Russian
    Audio #2
    ID : 3
    Format : AC-3
    Format/Info : Audio Coding 3
    Codec ID : A_AC3
    Duration : 2h 35mn
    Bit rate mode : Constant
    Bit rate : 448 Kbps
    Channel(s) : 6 channels
    Channel positions : Front: L C R, Surround: L R, LFE
    Sampling rate : 48.0 KHz
    Stream size : 499 MiB (6%)
    Title : Original
    Language : English
    Text #1
    ID : 4
    Format : UTF-8
    Codec ID : S_TEXT/UTF8
    Codec ID/Info : UTF-8 Plain Text
    Title : Forced
    Language : Russian
    Text #2
    ID : 5
    Format : UTF-8
    Codec ID : S_TEXT/UTF8
    Codec ID/Info : UTF-8 Plain Text
    Language : English





    Релиз подготовил: HQ-ViDEO
    Автор рипа: GYN

    Онлайн видео Робин Гуд


    Размер скачиваемого торрента: 7.92 GB (8502820651 Bytes)

    Робин Гуд/Robin Hood (2010) BDRip 720p от HQ-ViDEO | Режиссерская версия | D
    загрузка...
    Рейтинг →
     (голосов: 1, оценка 4/5, голосовать можно 1 раз )

    Другие торренты по теме:

  • Том и Джерри: Робин Гуд и Мышь-Весельчак / Tom and Jerry: Robin Hood and His Merry Mouse (2012) BDRip 1080p от R.G. GoldenShara торрент скачать бесплатно
  • Робин Гуд: Мужчины в трико / Robin Hood: Men in Tights (1993) BDRip-AVC | iPad торрент скачать бесплатно
  • Приключения Робин Гуда / The Adventures of Robin Hood (1938) BDRip 1080p от Freeisland торрент скачать бесплатно
  • Владимир Дубровский - Робин Гуд (1978) (1995) APE торрент скачать бесплатно
  • Тайны истории. Робин Гуд / Mystery Files. Robin Hood (2009) HDTVRip-AVC от Тorrent-Хzona торрент скачать бесплатно
  • Робин Гуд / Robin Hood (2010) BDRip-AVC | iPad торрент скачать бесплатно
  • Дочь Робин Гуда: Принцесса воров / Princess of Thieves (2001) BDRip от HQCLUB торрент скачать бесплатно
  • Робин Гуд / Robin Hood (2010) BDRip-AVC от olegek70 | D, A | Режиссерская версия торрент скачать бесплатно


    • Комментарии (0):

      Информация

      Информация

        Посетители, находящиеся в группе Гости, не могут оставлять комментарии в данной новости.

        ↓ Меню



        ↓ Опрос

        А Вы добавили сайт в закладки?
        Да
        Не


        Top 10 за неделю (Фильмы)