.
Авторизация | Регистрация
» » Всё ещё Элис / Still Alice (2014) BDRip 1080p от ExKinoRay | Р, A | Лицензия скачать торрент бесплатно




    Всё ещё Элис / Still Alice (2014) BDRip 1080p от ExKinoRay | Р, A | Лицензия скачать торрент бесплатно

    Опубликовал: Админ | Дата: 29-05-2015, 15:03 | Просмотров: 99


    Детально о кино
    Русское название: Всё ещё Элис
    Русское название в мировом прокате: Still Alice
    Создали в: 2014
    Категория жанра: драма
    Главный режиссер: Ричард Глацер, Уош Уэстмоленд

    Актеры
    Джулианна Мур, Алек Болдуин, Кристен Стюарт, Кейт Босворт, Шэйн МакРей, Хантер Пэрриш, Сет Гиллиам, Стефан Канкен, Эрин Дрэйк, Дэниэл Джерролл

    Сюжет фильма

    Элис Хаулэнд – известный профессор лингвистики. Она счастлива в браке, у нее трое взрослых детей. Но все меняется, когда однажды она начинает забывать слова…

    Снималось в: США, Франция
    Киностудия: Big Indie Pictures, BSM Studio, Shriver Films
    Время просмотра: 01: 41: 15
    Перевод текста: Профессиональный (многоголосый, закадровый) Blu-ray CEE + Авторский (Вячеслав Котов)
    Релиз:
    Файл
    Тип видео: Matroska
    Информация о видео: 1920x1038 at 23.976 fps, x264@L4.1, ~13100 kbps avg
    Aудио#1: Russian: 48 kHz, AC3, 3/2 (L, C, R, l, r) + LFE ch, ~640 kbps avg |Многоголосый закадровый, Blu-ray CEE|
    Aудио#2: Russian: 48 kHz, AC3, 3/2 (L, C, R, l, r) + LFE ch, ~640 kbps avg |Авторский, В. Котов|
    Информация о звуке#3: Russian: 48 kHz, DTS, 3/2 (L, C, R, l, r) + LFE ch, ~1509 kbps avg |Авторский, В. Котов|
    Информация о звуке#4: English: 48 kHz, DTS, 3/2 (L, C, R, l, r) + LFE ch, ~1509 kbps avg
    Субтитры: Russian (Blu-ray CEE), English
    MI
    General
    Unique ID : 247043585088063853001163190129486004889 (0xB9DADD2295F8ABD898597265F4610299)
    Complete name : Still.Alice.2014.BDRip.1080p.ExKinoRay.mkv
    Format : Matroska
    Format version : Version 2
    File size : 12.5 GiB
    Duration : 1h 41mn
    Overall bit rate : 17.7 Mbps
    Encoded date : UTC 2015-05-29 02: 32: 59
    Writing application : mkvmerge v5.8.0 (;No Sleep/Pillow;) built on Sep 2 2012 15: 37: 04
    Writing library : libebml v1.2.3 + libmatroska v1.3.0
    Video
    ID : 1
    Format : AVC
    Format/Info : Advanced Video Codec
    Format profile : High@L4.1
    Format settings, CABAC : Yes
    Format settings, ReFrames : 4 frames
    Codec ID : V_MPEG4/ISO/AVC
    Duration : 1h 41mn
    Bit rate : 13.1 Mbps
    Width : 1 920 pixels
    Height : 1 038 pixels
    Display aspect ratio : 1.85: 1
    Frame rate mode : Constant
    Frame rate : 23.976 fps
    Color space : YUV
    Chroma subsampling : 4: 2: 0
    Bit depth : 8 bits
    Scan type : Progressive
    Bits/(Pixel*Frame) : 0.274
    Stream size : 9.26 GiB (74%)
    Writing library : x264 core 146 r2538 121396c
    Encoding settings : cabac=1/ref=4/deblock=1: -3: -3/analyse=0x3: 0x113/me=umh/subme=11/psy=1/psy_rd=1.00: 0.00/mixed_ref=1/me_range=24/chroma_me=1/trellis=2/8x8dct=1/cqm=0/deadzone=21, 11/fast_pskip=0/chroma_qp_offset=-2/threads=12/lookahead_threads=2/sliced_threads=0/nr=0/decimate=1/interlaced=0/bluray_compat=0/constrained_intra=0/bframes=8/b_pyramid=2/b_adapt=2/b_bias=0/direct=1/weightb=1/open_gop=0/weightp=2/keyint=240/keyint_min=23/scenecut=40/intra_refresh=0/rc_lookahead=40/rc=crf/mbtree=0/crf=17.5/qcomp=0.65/qpmin=0/qpmax=69/qpstep=4/vbv_maxrate=62500/vbv_bufsize=78125/crf_max=0.0/nal_hrd=none/filler=0/ip_ratio=1.30/pb_ratio=1.20/aq=1: 0.70
    Language : English
    Default : Yes
    Forced : Yes
    Audio #1
    ID : 2
    Format : AC-3
    Format/Info : Audio Coding 3
    Mode extension : CM (complete main)
    Format settings, Endianness : Big
    Codec ID : A_AC3
    Duration : 1h 41mn
    Bit rate mode : Constant
    Bit rate : 640 Kbps
    Channel(s) : 6 channels
    Channel positions : Front: L C R, Side: L R, LFE
    Sampling rate : 48.0 KHz
    Bit depth : 16 bits
    Compression mode : Lossy
    Stream size : 463 MiB (4%)
    Title : MVO, Blu-ray CEE
    Language : Russian
    Default : Yes
    Forced : Yes
    Audio #2
    ID : 3
    Format : AC-3
    Format/Info : Audio Coding 3
    Mode extension : CM (complete main)
    Format settings, Endianness : Big
    Codec ID : A_AC3
    Duration : 1h 41mn
    Bit rate mode : Constant
    Bit rate : 640 Kbps
    Channel(s) : 6 channels
    Channel positions : Front: L C R, Side: L R, LFE
    Sampling rate : 48.0 KHz
    Bit depth : 16 bits
    Compression mode : Lossy
    Stream size : 463 MiB (4%)
    Title : Котов
    Language : Russian
    Default : No
    Forced : No
    Audio #3
    ID : 4
    Format : DTS
    Format/Info : Digital Theater Systems
    Mode : 16
    Format settings, Endianness : Big
    Codec ID : A_DTS
    Duration : 1h 41mn
    Bit rate mode : Constant
    Bit rate : 1 509 Kbps
    Channel(s) : 6 channels
    Channel positions : Front: L C R, Side: L R, LFE
    Sampling rate : 48.0 KHz
    Bit depth : 24 bits
    Compression mode : Lossy
    Stream size : 1.07 GiB (9%)
    Title : Котов
    Language : Russian
    Default : No
    Forced : No
    Audio #4
    ID : 5
    Format : DTS
    Format/Info : Digital Theater Systems
    Mode : 16
    Format settings, Endianness : Big
    Codec ID : A_DTS
    Duration : 1h 41mn
    Bit rate mode : Constant
    Bit rate : 1 509 Kbps
    Channel(s) : 6 channels
    Channel positions : Front: L C R, Side: L R, LFE
    Sampling rate : 48.0 KHz
    Bit depth : 24 bits
    Compression mode : Lossy
    Stream size : 1.07 GiB (9%)
    Language : English
    Default : No
    Forced : No
    Text #1
    ID : 6
    Format : UTF-8
    Codec ID : S_TEXT/UTF8
    Codec ID/Info : UTF-8 Plain Text
    Title : Blu-ray CEE
    Language : Russian
    Default : No
    Forced : No
    Text #2
    ID : 7
    Format : UTF-8
    Codec ID : S_TEXT/UTF8
    Codec ID/Info : UTF-8 Plain Text
    Language : English
    Default : No
    Forced : No
    Menu
    00: 00: 00.000 : en: 00: 00: 00.000
    00: 04: 40.697 : en: 00: 04: 40.697
    00: 11: 03.246 : en: 00: 11: 03.246
    00: 15: 37.895 : en: 00: 15: 37.895
    00: 21: 34.668 : en: 00: 21: 34.668
    00: 28: 51.063 : en: 00: 28: 51.063
    00: 36: 54.546 : en: 00: 36: 54.546
    00: 43: 54.841 : en: 00: 43: 54.841
    00: 49: 39.518 : en: 00: 49: 39.518
    00: 58: 20.247 : en: 00: 58: 20.247
    01: 05: 08.863 : en: 01: 05: 08.863
    01: 11: 36.000 : en: 01: 11: 36.000
    01: 16: 38.886 : en: 01: 16: 38.886
    01: 20: 02.172 : en: 01: 20: 02.172
    01: 27: 08.849 : en: 01: 27: 08.849
    01: 30: 08.945 : en: 01: 30: 08.945
    Скриншоты


    Онлайн видео Всё ещё Элис


    Размер скачиваемого торрента: 12.55 GB (13470184609 Bytes)

    Всё ещё Элис/Still Alice (2014) BDRip 1080p от ExKinoRay | Р, A | Лицензия
    загрузка...
    Рейтинг →
     (голосов: 1, оценка 5/5, голосовать можно 1 раз )

    Другие торренты по теме:

  • Меня всё ещё зовут Троица / ...continuavano a chiamarlo Trinit (1971) BDRip by msltel | P, A | Расширенная версия торрент скачать бесплатно
  • Меня всё ещё зовут Троица / ...continuavano a chiamarlo Trinit (1971) BDRip 720p by msltel | P, A | Расширенная версия скачать через торрент бесплатно
  • Меня всё ещё зовут Троица / ...continuavano a chiamarlo Trinit (1971) BDRip 1080p by msltel | P, A | Расширенная версия скачать через торрент бесплатно
  • Меня всё ещё зовут Троица / ...continuavano a chiamarlo Trinit (1971) BDRip-AVC от MediaClub | Расширенная версия торрент скачать бесплатно
  • Всё ещё возможно / Da geht noch was! (2013) HDRip | L1 скачать через торрент бесплатно
  • Всё ещё возможно / Da geht noch was! (2013) BDRip 1080p от CINEMANIA | L1 скачать через торрент бесплатно
  • Герман Вук всё ещё жив торрент скачать бесплатно
  • Всё ещё Элис / Still Alice (2014) BDRip-AVC от New-Team | P | Лицензия скачать торрент бесплатно


    • Комментарии (0):

      Информация

      Информация

        Посетители, находящиеся в группе Гости, не могут оставлять комментарии в данной новости.

        ↓ Меню



        ↓ Опрос

        А Вы добавили сайт в закладки?
        Да
        Не


        Top 10 за неделю (Фильмы)