.
Авторизация | Регистрация
» » Миссия Серенити / Serenity (2005) BDRip 720p от HQ-ViDEO | D скачать торрент бесплатно




    Миссия Серенити / Serenity (2005) BDRip 720p от HQ-ViDEO | D скачать торрент бесплатно

    Опубликовал: Админ | Дата: 29-05-2015, 16:55 | Просмотров: 95


    Миссия Серенити/Serenity (2005) BDRip 720p
    Релиз от HQ-ViDEO

    Детально о кино
    Русское название: Миссия Серенити
    Русское название в мировом прокате: Serenity
    Создали в: 2005
    Категория жанра: фантастика, боевик, триллер, приключения
    Главный режиссер: Джосс Уидон /Joss Whedon/

    Актеры
    Натан Филлион /Nathan Fillion/, Джина Торрес /Gina Torres/, Алан Тьюдик /Alan Tudyk/, Морена Баккарин /Morena Baccarin/, Адам Болдуин /Adam Baldwin/, Джуэл Стэйт /Jewel Staite/, Шон Маэр /Sean Maher/, Саммер Глау /Summer Glau/, Рон Гласс /Ron Glass/, Чиветел Эджиофор /Chiwetel Ejiofor/...

    Сюжет фильма

    Космический морской волк и ветеран Гражданской Галактической войны Малькольм Мэл Рейнольдс — теперь всего лишь капитан транспортного корабля. Когда они взяли на борт пассажиров — молодого доктора и его странную сестру с телепатическими способностями, ни он, ни его товарищи не предполагали, в какую историю ввяжутся. Спасаясь сразу от нескольких могущественных врагов — и от военных сил тоталитарного Вселенского Альянса, и от ужасных каннибалов Жнецов, команда корабля даже не догадывалась, какая угроза скрывается на борту Серенити.

    Снималось в: США
    Время просмотра: 01: 59: 02
    Перевод текста: Русский дублированный + Оригинальная, английская дорожка (отдельно)
    Файл
    Кодек для видео: MKV, H.264
    Качество фильма: BDRip 720p (Source: Blu-ray Disc)
    Информация о видео: 4711 kbps; 0.282 bit/pixel; 1280 x 544; 2.35: 1; 23.976 fps
    Информация о звуке #1: AC3 Dolby Digital; 448.00 kbps, 6 Ch - DUB
    Информация о звуке #2: AC3 Dolby Digital; 448.00 kbps, 6 Ch - ENG (отдельно/скачать с Яндекс Диск)
    Субтитры: Русские, Английские.
    Субтитры: Русские (полные (2 вида), комментарии), Английские (полные, SDH).(Отдельно)
    Размер скачиваемого торрента: 4.38 GB
    SAMPLE/скачать с Яндекс Диск
    MediaInfo

    General
    Complete name : Missiya.Sereniti.2005.RUS.BDRip.720p.h264.AC3.-HQ-ViDEO.mkv
    Format : Matroska
    File size : 4.38 GiB
    Duration : 1h 59mn
    Overall bit rate : 5 264 Kbps
    Movie name : Serenity (2005)
    Encoded date : UTC 2010-09-22 05: 33: 55
    Writing application : mkvmerge v3.3.0 (;Language;) built on Mar 24 2010 14: 59: 24
    Writing library : libebml v0.8.0 + libmatroska v0.9.0
    Video
    ID : 1
    Format : AVC
    Format/Info : Advanced Video Codec
    Format profile : High@L4.1
    Format settings, CABAC : Yes
    Format settings, ReFrames : 6 frames
    Muxing mode : Container profile=Unknown@4.1
    Codec ID : V_MPEG4/ISO/AVC
    Duration : 1h 58mn
    Bit rate : 4 711 Kbps
    Width : 1 280 pixels
    Height : 544 pixels
    Display aspect ratio : 2.35: 1
    Frame rate : 23.976 fps
    Resolution : 8 bits
    Colorimetry : 4: 2: 0
    Scan type : Progressive
    Bits/(Pixel*Frame) : 0.282
    Stream size : 3.91 GiB (89%)
    Title : Encoded by GYN
    Audio
    ID : 2
    Format : AC-3
    Format/Info : Audio Coding 3
    Codec ID : A_AC3
    Duration : 1h 59mn
    Bit rate mode : Constant
    Bit rate : 448 Kbps
    Channel(s) : 6 channels
    Channel positions : Front: L C R, Surround: L R, LFE
    Sampling rate : 48.0 KHz
    Stream size : 381 MiB (9%)
    Title : DUB
    Language : Russian
    Text #1
    ID : 3
    Format : UTF-8
    Codec ID : S_TEXT/UTF8
    Codec ID/Info : UTF-8 Plain Text
    Title : Тусооn-Studiо
    Language : Russian
    Text #2
    ID : 4
    Format : UTF-8
    Codec ID : S_TEXT/UTF8
    Codec ID/Info : UTF-8 Plain Text
    Language : English





    Релиз подготовил: HQ-ViDEO
    Автор рипа: GYN

    Онлайн видео Миссия Серенити


    Размер скачиваемого торрента: 4.38 GB (4699585653 Bytes)

    Миссия Серенити/Serenity (2005) BDRip 720p от HQ-ViDEO | D
    загрузка...
    Рейтинг →
     (голосов: 1, оценка 5/5, голосовать можно 1 раз )

    Другие торренты по теме:

  • Миссия Серенити / Serenity (2005) BDRip 1080p от FREEISLAND торрент скачать бесплатно
  • OST - Миссия Серенити / Serenity (2005) MP3 торрент скачать бесплатно
  • Миссия Серенити / Serenity (2005) BDRip 720p | D, P2, A торрент скачать бесплатно
  • Миссия Серенити / Serenity (2005) BDRip-AVC от ExKinoRay | D, P2, A торрент скачать бесплатно
  • Миссия Серенити / Serenity (2005) DVD9 от New-Team | D | Лицензия торрент скачать бесплатно


    • Комментарии (0):

      Информация

      Информация

        Посетители, находящиеся в группе Гости, не могут оставлять комментарии в данной новости.

        ↓ Меню



        ↓ Опрос

        А Вы добавили сайт в закладки?
        Да
        Не


        Top 10 за неделю (Фильмы)