.
Авторизация | Регистрация
Хочешь лучшие торренты? Добавь свой email!
Добавить
» » Kingsman: Секретная служба / Kingsman: The Secret Service (2014) BDRip 720p | D, A торрент скачать бесплатно




    Kingsman: Секретная служба / Kingsman: The Secret Service (2014) BDRip 720p | D, A торрент скачать бесплатно

    Опубликовал: Админ | Дата: 29-05-2015, 16:56 | Просмотров: 122



    Детально о кино
    Русское название: Kingsman: Секретная служба
    Русское название в мировом прокате: Kingsman: The Secret Service
    Создали в: 2014
    Категория жанра: боевик, комедия, криминал, приключения
    Главный режиссер: Мэттью Вон

    Актеры
    Тэрон Эджертон, Колин Фёрт, Сэмюэл Л. Джексон, Марк Стронг, Софи Куксон, Майкл Кейн, София Бутелла, Саманта Янус, Джофф Белл, Марк Хэмилл


    Сюжет фильма
    Эггси — молодой парень, который прошел службу в морской пехоте и имеет очень высокий уровень интеллекта. Он мог бы добиться многого, но выбрал другой путь и стал мелким преступником. Однажды он знакомится с Гарри Хартом, которому его отец когда-то спас жизнь. Этот человек решил сделать все возможное, чтобы сделать жизнь Эггси лучше и открыть для него новые возможности. Гарри рассказал ему, что является агентом секретной независимой организации, которая стоит на защите всего мира. Он предложил парню пройти обучение и стать новым членом их команды. Эггси принял предложение Харта, но сможет ли он справиться со всеми испытаниями и оправдать его надежды?..



    Снималось в: Великобритания/Twentieth Century Fox Film Corporation, Marv Films, TSG Entertainment
    Время просмотра: 02: 08: 37
    Перевод текста: Профессиональный (полное дублирование)- HDClub - iTunes
    Авторский (одноголосый, закадровый)- А. Матвеев

    Файл
    Качество фильма: BDRip 720p
    Тип видео: MKV
    Информация о видео: MPEG4/AVC, 5438 Кбит/сек, 1280х534 (2.40: 1), 23.976 кадра/сек
    Информация о звуке 1: AC3, 6 каналов, 640 Кбит/сек | Русский - HDClub - iTunes
    Информация о звуке 2: AC3, 6 каналов, 640 Кбит/сек | Русский - А. Матвеев
    Информация о звуке 3: AC3, 2 канала, 384 Кбит/сек | Украинский - HDClub - iTunes
    Информация о звуке 4: AC3, 6 каналов, 640 Кбит/сек | Английский
    Субтитры: Русские (Forced, Full), украинские (Forced, Full), английские (Forced, Full, SDH)
    Навигация по главам: Есть

    MediaInfo:
    Общее
    Уникальный идентификатор : 198476154014065662040145667073847766112 (0x95511DE8533BE59BA7EBE4BB7A8AAC60)
    Полное имя : Kingsman. The Secret Service. (2014) BDRip 720p.mkv
    Формат : Matroska
    Версия формата : Version 2
    Размер файла : 6, 96 Гбайт
    Продолжительность : 2 ч. 8 м.
    Общий поток : 7742 Кбит/сек
    Название фильма : Kingsman. The Secret Service. 2014
    Дата кодирования : UTC 2015-05-29 09: 28: 47
    Программа кодирования : mkvmerge v5.8.0 (;No Sleep/Pillow;) built on Sep 2 2012 15: 37: 04
    Библиотека кодирования : libebml v1.2.3 + libmatroska v1.3.0

    Видео
    Идентификатор : 1
    Формат : AVC
    Формат/Информация : Advanced Video Codec
    Профиль формата : High@L4.1
    Параметр CABAC формата : Да
    Параметр ReFrames формата : 12 кадров
    Идентификатор кодека : V_MPEG4/ISO/AVC
    Продолжительность : 2 ч. 8 м.
    Битрейт : 5438 Кбит/сек
    Ширина : 1280 пикселей
    Высота : 534 пикселя
    Соотношение сторон : 2, 40: 1
    Режим частоты кадров : Постоянный
    Частота кадров : 23, 976 кадра/сек
    Цветовое пространство : YUV
    Субдискретизация насыщенности : 4: 2: 0
    Битовая глубина : 8 бит
    Тип развёртки : Прогрессивная
    Бит/(Пиксели*Кадры) : 0.332
    Размер потока : 4, 75 Гбайт (68%)
    Заголовок : WiKi
    Библиотека кодирования : x264 core 129 r2245+704+36 8e61944 tMod+MixAQ 8-bit@4: 2: 0 X86_64
    Настройки программы : cabac=1/ref=12/deblock=1: -3: -3/analyse=0x3: 0x133/me=umh/subme=11/psy=1/fade_compensate=0.00/psy_rd=1.05: 0.10/mixed_ref=1/me_range=32/chroma_me=1/trellis=2/8x8dct=1/cqm=0/deadzone=21, 11/fast_pskip=0/chroma_qp_offset=-3/threads=18/lookahead_threads=3/sliced_threads=0/nr=0/decimate=0/interlaced=0/bluray_compat=0/constrained_intra=0/fgo=0/bframes=10/b_pyramid=2/b_adapt=2/b_bias=0/direct=3/weightb=1/open_gop=0/weightp=2/keyint=250/keyint_min=23/scenecut=40/intra_refresh=0/rc_lookahead=80/rc=2pass/mbtree=1/bitrate=5438/ratetol=1.0/qcomp=0.70/qpmin=0/qpmax=69/qpstep=4/cplxblur=20.0/qblur=0.5/ip_ratio=1.40/aq=1/aq-strength=0.85/aq-sensitivity=10.00/aq-ifactor=1.00/aq-pfactor=1.00/aq-bfactor=1.00/aq2=0
    Язык : English
    Default : Да
    Forced : Нет

    Аудио #1
    Идентификатор : 2
    Формат : AC-3
    Формат/Информация : Audio Coding 3
    Расширение режима : CM (complete main)
    Параметр Endianness формата : Big
    Идентификатор кодека : A_AC3
    Продолжительность : 2 ч. 8 м.
    Вид битрейта : Постоянный
    Битрейт : 640 Кбит/сек
    Каналы : 6 каналов
    Расположение каналов : Front: L C R, Side: L R, LFE
    Частота : 48, 0 КГц
    Битовая глубина : 16 бит
    Метод сжатия : С потерями
    Размер потока : 589 Мбайт (8%)
    Заголовок : D | HDClub - iTunes
    Язык : Russian
    Default : Да
    Forced : Нет

    Аудио #2
    Идентификатор : 3
    Формат : AC-3
    Формат/Информация : Audio Coding 3
    Расширение режима : CM (complete main)
    Параметр Endianness формата : Big
    Идентификатор кодека : A_AC3
    Продолжительность : 2 ч. 8 м.
    Вид битрейта : Постоянный
    Битрейт : 640 Кбит/сек
    Каналы : 6 каналов
    Расположение каналов : Front: L C R, Side: L R, LFE
    Частота : 48, 0 КГц
    Битовая глубина : 16 бит
    Метод сжатия : С потерями
    Размер потока : 589 Мбайт (8%)
    Заголовок : A | А. Матвеев
    Язык : Russian
    Default : Нет
    Forced : Нет

    Аудио #3
    Идентификатор : 4
    Формат : AC-3
    Формат/Информация : Audio Coding 3
    Расширение режима : CM (complete main)
    Параметр Endianness формата : Big
    Идентификатор кодека : A_AC3
    Продолжительность : 2 ч. 8 м.
    Вид битрейта : Постоянный
    Битрейт : 384 Кбит/сек
    Каналы : 2 канала
    Расположение каналов : Front: L R
    Частота : 48, 0 КГц
    Битовая глубина : 16 бит
    Метод сжатия : С потерями
    Размер потока : 353 Мбайт (5%)
    Заголовок : D | HDClub - iTunes
    Язык : Ukrainian
    Default : Нет
    Forced : Нет

    Аудио #4
    Идентификатор : 5
    Формат : AC-3
    Формат/Информация : Audio Coding 3
    Расширение режима : CM (complete main)
    Параметр Endianness формата : Big
    Идентификатор кодека : A_AC3
    Продолжительность : 2 ч. 8 м.
    Вид битрейта : Постоянный
    Битрейт : 640 Кбит/сек
    Каналы : 6 каналов
    Расположение каналов : Front: L C R, Side: L R, LFE
    Частота : 48, 0 КГц
    Битовая глубина : 16 бит
    Метод сжатия : С потерями
    Размер потока : 589 Мбайт (8%)
    Заголовок : Original
    Язык : English
    Default : Нет
    Forced : Нет

    Текст #1
    Идентификатор : 6
    Формат : UTF-8
    Идентификатор кодека : S_TEXT/UTF8
    Идентификатор кодека/Информация : UTF-8 Plain Text
    Заголовок : Forced
    Язык : Russian
    Default : Да
    Forced : Нет

    Текст #2
    Идентификатор : 7
    Формат : UTF-8
    Идентификатор кодека : S_TEXT/UTF8
    Идентификатор кодека/Информация : UTF-8 Plain Text
    Заголовок : Full
    Язык : Russian
    Default : Нет
    Forced : Нет

    Текст #3
    Идентификатор : 8
    Формат : UTF-8
    Идентификатор кодека : S_TEXT/UTF8
    Идентификатор кодека/Информация : UTF-8 Plain Text
    Заголовок : Forced
    Язык : Ukrainian
    Default : Нет
    Forced : Нет

    Текст #4
    Идентификатор : 9
    Формат : UTF-8
    Идентификатор кодека : S_TEXT/UTF8
    Идентификатор кодека/Информация : UTF-8 Plain Text
    Заголовок : Full
    Язык : Ukrainian
    Default : Нет
    Forced : Нет

    Текст #5
    Идентификатор : 10
    Формат : UTF-8
    Идентификатор кодека : S_TEXT/UTF8
    Идентификатор кодека/Информация : UTF-8 Plain Text
    Заголовок : Forced
    Язык : English
    Default : Нет
    Forced : Нет

    Текст #6
    Идентификатор : 11
    Формат : UTF-8
    Идентификатор кодека : S_TEXT/UTF8
    Идентификатор кодека/Информация : UTF-8 Plain Text
    Заголовок : Full
    Язык : English
    Default : Нет
    Forced : Нет

    Текст #7
    Идентификатор : 12
    Формат : UTF-8
    Идентификатор кодека : S_TEXT/UTF8
    Идентификатор кодека/Информация : UTF-8 Plain Text
    Заголовок : SDH
    Язык : English
    Default : Нет
    Forced : Нет

    Меню
    00: 00: 00.000 : en: 00: 00: 00.000
    00: 02: 55.466 : en: 00: 02: 55.466
    00: 04: 50.665 : en: 00: 04: 50.665
    00: 08: 34.180 : en: 00: 08: 34.180
    00: 11: 49.875 : en: 00: 11: 49.875
    00: 13: 04.575 : en: 00: 13: 04.575
    00: 15: 57.998 : en: 00: 15: 57.998
    00: 18: 25.979 : en: 00: 18: 25.979
    00: 23: 48.051 : en: 00: 23: 48.051
    00: 25: 37.327 : en: 00: 25: 37.327
    00: 29: 53.750 : en: 00: 29: 53.750
    00: 32: 22.315 : en: 00: 32: 22.315
    00: 33: 44.939 : en: 00: 33: 44.939
    00: 36: 58.507 : en: 00: 36: 58.507
    00: 38: 46.657 : en: 00: 38: 46.657
    00: 42: 43.060 : en: 00: 42: 43.060
    00: 45: 00.906 : en: 00: 45: 00.906
    00: 47: 39.314 : en: 00: 47: 39.314
    00: 53: 44.596 : en: 00: 53: 44.596
    00: 57: 25.233 : en: 00: 57: 25.233
    01: 03: 26.552 : en: 01: 03: 26.552
    01: 05: 18.914 : en: 01: 05: 18.914
    01: 10: 24.970 : en: 01: 10: 24.970
    01: 13: 07.257 : en: 01: 13: 07.257
    01: 14: 58.994 : en: 01: 14: 58.994
    01: 16: 55.235 : en: 01: 16: 55.235
    01: 23: 00.850 : en: 01: 23: 00.850
    01: 25: 54.440 : en: 01: 25: 54.440
    01: 31: 18.347 : en: 01: 31: 18.347
    01: 34: 35.836 : en: 01: 34: 35.836
    01: 36: 24.987 : en: 01: 36: 24.987
    01: 39: 57.032 : en: 01: 39: 57.032
    01: 44: 04.905 : en: 01: 44: 04.905
    01: 50: 28.121 : en: 01: 50: 28.121
    01: 58: 14.712 : en: 01: 58: 14.712
    01: 59: 31.956 : en: 01: 59: 31.956



    Релиз подготовил:

    Онлайн видео Kingsman: Секретная служба


    Размер скачиваемого торрента: 6.96 GB (7469122110 Bytes)

    Kingsman: Секретная служба/Kingsman: The Secret Service (2014) BDRip 720p | D, A
    загрузка...
    Рейтинг →
     (голосов: 1, оценка 3/5, голосовать можно 1 раз )

    Другие торренты по теме:

  • Kingsman: Тайная служба / Kingsman: Секретная служба (2015) TS
  • Kingsman: Секретная служба / Kingsman: The Secret Service (2014) TS
  • Kingsman: Секретная служба / Kingsman: The Secret Service (2014) HDRip | iTunes
  • Kingsman: Секретная служба / Kingsman: The Secret Service (2014) HDRip | iTunes
  • Kingsman: Секретная служба / Kingsman: The Secret Service (2014) BDRip 720p | iTunes
  • Kingsman: Секретная служба / Kingsman: The Secret Service (2014) BDRip 1080p | D | iTunes
  • Kingsman: Секретная служба / Kingsman: The Secret Service (2014) HDRip-AVC от ExKinoRay | iTunes
  • Kingsman: Секретная служба / Kingsman: The Secret Service (2014) HDRip-AVC | iTunes


    • Комментарии (0):

      Информация

      Информация

        Посетители, находящиеся в группе Гости, не могут оставлять комментарии в данной новости.

        ↓ Меню



        ↓ Опрос

        А Вы добавили сайт в закладки?
        Да
        Не


        Top 10 за месяц (Фильмы)